Вы используете незарегистрированную версию компонента "Вкладки"!

Поиск

(Modern Creative / Post Bop) Ben Goldberg Quintet - The Door, the Hat, the Chair, the Fact - 2006, FLAC (tracks+.cue), lossless

(Modern Creative / Post Bop) Ben Goldberg Quintet - The Door, the Hat, the Chair, the Fact - 2006, FLAC (tracks+.cue), lossless
Треклист:
Ben Goldberg Quintet - The Door, the Hat, the Chair, the Fact
Жанр: Modern Creative / Post Bop
Год выпуска диска: 2006
Производитель диска: US (Cryptogramophone Records) [CG126]
Аудио кодек: FLAC
Тип рипа: tracks+.cue
Битрейт аудио: lossless
Продолжительность: 59:20
Трэклист:
Ben Goldberg - clarinet
Carla Kihlstedt - violin, voice
Rob Sudduth - tenor saxophone
Devin Hoff - bass
Ches Smith - drums
1. Petals
2. Song and Dance
3. Long Last Moment
4. F13
5. Facts
6. Blinks
7. I Before E Before I
8. Learned From Susan Stewart
9. MF
10. Facts
11. Dogs Life
12. Lone
13. Cortege
14. Untitled (Hidden Track)
 
.log
Exact Audio Copy V0.99 prebeta 4 from 23. January 2008
EAC extraction logfile from 14. April 2009, 20:38
Ben Goldberg Quintet / The Door, the Hat, the Chair, the Fact
Used drive : Optiarc DVD RW AD-7200A Adapter: 1 ID: 0
Read mode : Secure
Utilize accurate stream : Yes
Defeat audio cache : Yes
Make use of C2 pointers : No
Read offset correction : 48
Overread into Lead-In and Lead-Out : No
Fill up missing offset samples with silence : Yes
Delete leading and trailing silent blocks : No
Null samples used in CRC calculations : Yes
Used interface : Native Win32 interface for Win NT & 2000
Gap handling : Appended to previous track
Used output format : User Defined Encoder
Selected bitrate : 768 kBit/s
Quality : High
Add ID3 tag : No
Command line compressor : C:\Program Files\Exact Audio Copy\Flac\flac.exe
Additional command line options : -V -8 -T "artist=%a" -T "title=%t" -T "album=%g" -T "date=%y" -T "tracknumber=%n" -T "genre=%m" %s
TOC of the extracted CD
Track | Start | Length | Start sector | End sector
---------------------------------------------------------
1 | 0:00.00 | 1:38.43 | 0 | 7392
2 | 1:38.43 | 4:26.73 | 7393 | 27415
3 | 6:05.41 | 6:32.18 | 27416 | 56833
4 | 12:37.59 | 2:58.49 | 56834 | 70232
5 | 15:36.33 | 1:56.07 | 70233 | 78939
6 | 17:32.40 | 4:57.10 | 78940 | 101224
7 | 22:29.50 | 7:15.48 | 101225 | 133897
8 | 29:45.23 | 5:14.06 | 133898 | 157453
9 | 34:59.29 | 2:59.32 | 157454 | 170910
10 | 37:58.61 | 3:34.51 | 170911 | 187011
11 | 41:33.37 | 5:45.53 | 187012 | 212939
12 | 47:19.15 | 1:11.57 | 212940 | 218321
13 | 48:30.72 | 5:01.53 | 218322 | 240949
14 | 53:32.50 | 5:54.33 | 240950 | 267532
Track 1
Filename E:\My Torrents\Ben Goldberg Quintet - The Door, the Hat, the Chair, the Fact (2006) (FLAC)\01 - Petals.wav
Pre-gap length 0:00:02.00
Peak level 94.4 %
Track quality 100.0 %
Test CRC 158FD4CB
Copy CRC 158FD4CB
Copy OK
Track 2
Filename E:\My Torrents\Ben Goldberg Quintet - The Door, the Hat, the Chair, the Fact (2006) (FLAC)\02 - Song and Dance.wav
Pre-gap length 0:00:02.13
Peak level 94.4 %
Track quality 99.9 %
Test CRC 43AE9E6E
Copy CRC 43AE9E6E
Copy OK
Track 3
Filename E:\My Torrents\Ben Goldberg Quintet - The Door, the Hat, the Chair, the Fact (2006) (FLAC)\03 - Long Last Moment.wav
Pre-gap length 0:00:02.30
Peak level 94.4 %
Track quality 100.0 %
Test CRC 49BEBAEE
Copy CRC 49BEBAEE
Copy OK
Track 4
Filename E:\My Torrents\Ben Goldberg Quintet - The Door, the Hat, the Chair, the Fact (2006) (FLAC)\04 - F13.wav
Pre-gap length 0:00:01.52
Peak level 91.7 %
Track quality 99.9 %
Test CRC CAE7A53A
Copy CRC CAE7A53A
Copy OK
Track 5
Filename E:\My Torrents\Ben Goldberg Quintet - The Door, the Hat, the Chair, the Fact (2006) (FLAC)\05 - Facts.wav
Pre-gap length 0:00:03.54
Peak level 73.6 %
Track quality 100.0 %
Test CRC 3C73ADB3
Copy CRC 3C73ADB3
Copy OK
Track 6
Filename E:\My Torrents\Ben Goldberg Quintet - The Door, the Hat, the Chair, the Fact (2006) (FLAC)\06 - Blinks.wav
Pre-gap length 0:00:01.60
Peak level 94.4 %
Track quality 100.0 %
Test CRC A30F932E
Copy CRC A30F932E
Copy OK
Track 7
Filename E:\My Torrents\Ben Goldberg Quintet - The Door, the Hat, the Chair, the Fact (2006) (FLAC)\07 - I Before E Before I.wav
Pre-gap length 0:00:03.33
Peak level 94.4 %
Track quality 99.9 %
Test CRC B61604F0
Copy CRC B61604F0
Copy OK
Track 8
Filename E:\My Torrents\Ben Goldberg Quintet - The Door, the Hat, the Chair, the Fact (2006) (FLAC)\08 - Learned From Susan Stewart.wav
Pre-gap length 0:00:01.68
Peak level 94.4 %
Track quality 100.0 %
Test CRC 54122E3A
Copy CRC 54122E3A
Copy OK
Track 9
Filename E:\My Torrents\Ben Goldberg Quintet - The Door, the Hat, the Chair, the Fact (2006) (FLAC)\09 - MF.wav
Pre-gap length 0:00:03.12
Peak level 94.4 %
Track quality 100.0 %
Test CRC EDFCF398
Copy CRC EDFCF398
Copy OK
Track 10
Filename E:\My Torrents\Ben Goldberg Quintet - The Door, the Hat, the Chair, the Fact (2006) (FLAC)\10 - Facts.wav
Pre-gap length 0:00:03.68
Peak level 94.4 %
Track quality 100.0 %
Test CRC C76D122C
Copy CRC C76D122C
Copy OK
Track 11
Filename E:\My Torrents\Ben Goldberg Quintet - The Door, the Hat, the Chair, the Fact (2006) (FLAC)\11 - Dog's Life.wav
Pre-gap length 0:00:04.61
Peak level 94.4 %
Track quality 100.0 %
Test CRC 50A11B34
Copy CRC 50A11B34
Copy OK
Track 12
Filename E:\My Torrents\Ben Goldberg Quintet - The Door, the Hat, the Chair, the Fact (2006) (FLAC)\12 - Lone.wav
Pre-gap length 0:00:04.49
Peak level 94.4 %
Track quality 100.0 %
Test CRC 61036703
Copy CRC 61036703
Copy OK
Track 13
Filename E:\My Torrents\Ben Goldberg Quintet - The Door, the Hat, the Chair, the Fact (2006) (FLAC)\13 - Cortege.wav
Pre-gap length 0:00:02.92
Peak level 94.4 %
Track quality 100.0 %
Test CRC 0BBA9717
Copy CRC 0BBA9717
Copy OK
Track 14
Filename E:\My Torrents\Ben Goldberg Quintet - The Door, the Hat, the Chair, the Fact (2006) (FLAC)\14 - Untitled.wav
Pre-gap length 0:00:30.36
Peak level 94.4 %
Track quality 100.0 %
Test CRC BD35FA1A
Copy CRC BD35FA1A
Copy OK
No errors occurred
End of status report
Any questions -> support@pro-jazz.com. По всем вопросам пишите -> support@pro-jazz.com
10:03
143
Нет комментариев. Ваш будет первым!