Вы используете незарегистрированную версию компонента "Вкладки"!

Поиск

(Modern Creative / Neo-Bop) Nels Cline Trio - Silencer - 1992, FLAC (tracks+.cue), lossless

(Modern Creative / Neo-Bop) Nels Cline Trio - Silencer - 1992, FLAC (tracks+.cue), lossless
Треклист:
Nels Cline Trio - Silencer
Жанр: Modern Creative / Neo-Bop
Год выпуска диска: 1992
Производитель диска: US (Enja) [R2 79678]
Аудио кодек: FLAC
Тип рипа: tracks+.cue
Битрейт аудио: lossless
Продолжительность: 68:41
Трэклист:
Nels Cline - guitars
Mark London Sims - bass guitar
Michael Preussner - drums
1. Las Vegas Tango (Gil Evans)
2. Mags
3. Ramplings by the Sea
4. Sacred Love
5. Lucile's Trip
6. Broasted (for John Scofield)
7. Angels of the Harbor
8. Silencer
9. Lapsing (Part 1 & 2)
10. Exiled (for Tina Modotti)
 
.log
Exact Audio Copy V0.99 prebeta 4 from 23. January 2008
EAC extraction logfile from 15. April 2009, 12:55
Nels Cline Trio / Silencer
Used drive : Optiarc DVD RW AD-7200A Adapter: 1 ID: 0
Read mode : Secure
Utilize accurate stream : Yes
Defeat audio cache : Yes
Make use of C2 pointers : No
Read offset correction : 48
Overread into Lead-In and Lead-Out : No
Fill up missing offset samples with silence : Yes
Delete leading and trailing silent blocks : No
Null samples used in CRC calculations : Yes
Used interface : Native Win32 interface for Win NT & 2000
Gap handling : Appended to previous track
Used output format : User Defined Encoder
Selected bitrate : 768 kBit/s
Quality : High
Add ID3 tag : No
Command line compressor : C:\Program Files\Exact Audio Copy\Flac\flac.exe
Additional command line options : -V -8 -T "artist=%a" -T "title=%t" -T "album=%g" -T "date=%y" -T "tracknumber=%n" -T "genre=%m" %s
TOC of the extracted CD
Track | Start | Length | Start sector | End sector
---------------------------------------------------------
1 | 0:00.50 | 7:27.62 | 50 | 33636
2 | 7:28.37 | 7:37.23 | 33637 | 67934
3 | 15:05.60 | 4:59.05 | 67935 | 90364
4 | 20:04.65 | 4:54.55 | 90365 | 112469
5 | 24:59.45 | 6:43.32 | 112470 | 142726
6 | 31:43.02 | 5:07.63 | 142727 | 165814
7 | 36:50.65 | 7:52.62 | 165815 | 201276
8 | 44:43.52 | 3:30.20 | 201277 | 217046
9 | 48:13.72 | 14:29.55 | 217047 | 282276
10 | 62:43.52 | 6:03.28 | 282277 | 309529
Track 1
Filename E:\My Torrents\Nels Cline Trio - Silencer (1992) (FLAC)\01 - Las Vegas Tango.wav
Pre-gap length 0:00:02.66
Peak level 96.4 %
Track quality 100.0 %
Test CRC A31E0EEE
Copy CRC A31E0EEE
Copy OK
Track 2
Filename E:\My Torrents\Nels Cline Trio - Silencer (1992) (FLAC)\02 - Mags.wav
Pre-gap length 0:00:02.69
Peak level 93.1 %
Track quality 100.0 %
Test CRC 9071DE71
Copy CRC 9071DE71
Copy OK
Track 3
Filename E:\My Torrents\Nels Cline Trio - Silencer (1992) (FLAC)\03 - Rampling by the Sea.wav
Pre-gap length 0:00:02.57
Peak level 77.7 %
Track quality 100.0 %
Test CRC 23157176
Copy CRC 23157176
Copy OK
Track 4
Filename E:\My Torrents\Nels Cline Trio - Silencer (1992) (FLAC)\04 - Sacred Love.wav
Pre-gap length 0:00:01.26
Peak level 94.7 %
Track quality 100.0 %
Test CRC 040C2428
Copy CRC 040C2428
Copy OK
Track 5
Filename E:\My Torrents\Nels Cline Trio - Silencer (1992) (FLAC)\05 - Lucile's Trip.wav
Peak level 86.9 %
Track quality 100.0 %
Test CRC D903124D
Copy CRC D903124D
Copy OK
Track 6
Filename E:\My Torrents\Nels Cline Trio - Silencer (1992) (FLAC)\06 - Broasted.wav
Peak level 78.8 %
Track quality 100.0 %
Test CRC 1F03F14D
Copy CRC 1F03F14D
Copy OK
Track 7
Filename E:\My Torrents\Nels Cline Trio - Silencer (1992) (FLAC)\07 - Angels of the Harbor.wav
Pre-gap length 0:00:03.04
Peak level 100.0 %
Track quality 100.0 %
Test CRC B9037BC8
Copy CRC B9037BC8
Copy OK
Track 8
Filename E:\My Torrents\Nels Cline Trio - Silencer (1992) (FLAC)\08 - Silencer.wav
Pre-gap length 0:00:01.22
Peak level 95.4 %
Track quality 100.0 %
Test CRC DBDD1A2C
Copy CRC DBDD1A2C
Copy OK
Track 9
Filename E:\My Torrents\Nels Cline Trio - Silencer (1992) (FLAC)\09 - Lapsing (Part 1 & 2).wav
Pre-gap length 0:00:02.26
Peak level 87.5 %
Track quality 100.0 %
Test CRC 47629FB7
Copy CRC 47629FB7
Copy OK
Track 10
Filename E:\My Torrents\Nels Cline Trio - Silencer (1992) (FLAC)\10 - Exiled.wav
Pre-gap length 0:00:04.33
Peak level 64.5 %
Track quality 100.0 %
Test CRC 25FB7BCD
Copy CRC 25FB7BCD
Copy OK
No errors occurred
End of status report
По всем вопросам пишите личное сообщение пользователю M0p94ok.
10:09
170
Нет комментариев. Ваш будет первым!