Вы используете незарегистрированную версию компонента "Вкладки"!

Поиск

(Modern Creative, Neo-Bop) Matthew Shipp - Nu Bop - 2002, APE (image+.cue) lossless

(Modern Creative, Neo-Bop) Matthew Shipp - Nu Bop - 2002, APE (image+.cue) lossless
Треклист:
Matthew Shipp - Nu Bop
Жанр: Modern Creative, Neo-Bop
Год выпуска диска: 2002
Производитель диска: US (Thirsty Ear)
Аудио кодек: APE
Тип рипа: image+.cue
Продолжительность: 39:59
1. Space Shipp
2. Nu-Bop
3. ZX-1
4. D's Choice
5. X-Ray
6. Rocket Shipp
7. Select Mode 1
8. Nu Abstract
9. Select Mode 2
Matthew Shipp : Piano
William Parker : Bass
Daniel Carter : Saxophone & Flute
Guillermo E. Brown : Drums
FLAM : Synths & Programming
 
скрытый текст
Отчёт EAC об извлечении, выполненном 17. февраля 2009, 20:31 для диска:
Shipp, Matthew / Nu Bop
Дисковод: HL-DT-STDVD-RAM GH22NS30 Adapter: 3 ID: 0
Режим чтения: Достоверный (C2: нет, Точный поток: да, Отключение кэша: да)
Коррекция смещения при чтении: 102
Способность читать области Lead-in и Lead-out : Нет
Выходной формат: Внутренние WAV-операции
44.100 Гц; 16 бит; стерео
Другие параметры:
Заполнение пропущенных сэмплов тишиной : Да
Удаление блоков с тишиной в начале и конце : Нет
Встроенный Win32-интерфейс для Win NT/2000
Характеристики диапазона извлечения и сообщения об ошибках
Выбранный диапазон
Имя файла E:\APE\Matthew Shipp\Nu Bop\Shipp, Matthew - Nu Bop.wav
Пиковый уровень 100.0 %
Качество диапазона 100.0 %
CRC B87C1CA3
Копирование... OK
Ошибок не произошло
Конец отчёта
 
Отчет CueTools
[CUETools log; Date: 22.06.2011 22:56:36; Version: 2.1.1]
[CTDB TOCID: pnOzTWCAdSwKzuiNZgv19BO5u0M-] disk not present in database.
[AccurateRip ID: 000decd2-0065f846-6b095f09] found.
Track [ CRC ] Status
01 [76c92e60] (0/9) No match
02 [c5eecf12] (0/9) No match
03 [6a890614] (0/9) No match
04 [9a5093e5] (0/9) No match
05 [6caa723f] (0/9) No match
06 [219e1a96] (0/9) No match
07 [467ff3fb] (0/9) No match
08 [336abb0e] (0/9) No match
09 [459b6de9] (0/9) No match
Offsetted by 18:
01 [8cb2a818] (6/9) Accurately ripped
02 [275dc5d4] (6/9) Accurately ripped
03 [de3b7bc2] (6/9) Accurately ripped
04 [9c6adb13] (6/9) Accurately ripped
05 [36427c07] (6/9) Accurately ripped
06 [0e77c7b8] (6/9) Accurately ripped
07 [aa645207] (6/9) Accurately ripped
08 [2eda8adc] (6/9) Accurately ripped
09 [63666445] (6/9) Accurately ripped
Track Peak [ CRC32 ] [W/O NULL]
-- 100,0 [FE105E2E] [B87C1CA3]
01 100,0 [C6259F32] [0CCB1540]
02 98,8 [9CAC61E3] [BA339F73]
03 87,1 [5B558DCC] [95CA8D44]
04 98,8 [04D181A1] [138557B3]
05 61,8 [2EECDEB1] [515E0BB1]
06 100,0 [CCF7319B] [464AA082]
07 98,8 [72EA5EED] [848CE740]
08 91,1 [0112A42F] [F6A1317C]
09 98,8 [C0B9DBBA] [54070536]
Any questions -> support@pro-jazz.com. По всем вопросам пишите -> support@pro-jazz.com
08:21
173
Нет комментариев. Ваш будет первым!