Поиск

(Modern Creative, Kalimba, Tzadik) Richard Crandell - Spring Steel (featuring Cyro Baptista) - 2007, FLAC (tracks+.cue), lossless

(Modern Creative, Kalimba, Tzadik) Richard Crandell - Spring Steel (featuring Cyro Baptista) - 2007, FLAC (tracks+.cue), lossless
Треклист:
Richard Crandell - Spring Steel (featuring Cyro Baptista)
Жанр: Modern Creative, Kalimba, Tzadik
Год выпуска диска: 2007
Производитель диска: US
Аудио кодек: FLAC
Тип рипа: tracks+.cue
Битрейт аудио: lossless
Продолжительность: 52:43
Трэклист:
1 Inner Circle (9:02)
2 Etude In E (4:25)
3 Zen Dagger (9:52)
4 Japanese Lullaby (2:23)
5 Spring Steel (A.K.A Ichiro 51) (3:29)
6 Beckoning (6:44)
7 Seven (3:02)
8 The River (14:01)
Kalimba [Mbira] - Richard Crandell
Percussion - Cyro Baptista
Доп. информация:
 
EAC log
Exact Audio Copy V0.99 prebeta 4 from 23. January 2008
EAC extraction logfile from 15. December 2008, 15:31
Richard Crandell / Spring Steel
Used drive : LITE-ON CD-RW SOHR-5239V Adapter: 0 ID: 1
Read mode : Secure
Utilize accurate stream : Yes
Defeat audio cache : Yes
Make use of C2 pointers : No
Read offset correction : 6
Overread into Lead-In and Lead-Out : No
Fill up missing offset samples with silence : Yes
Delete leading and trailing silent blocks : No
Null samples used in CRC calculations : Yes
Used interface : Installed external ASPI interface
Gap handling : Appended to previous track
Used output format : User Defined Encoder
Selected bitrate : 320 kBit/s
Quality : High
Add ID3 tag : No
Command line compressor : C:\Program Files\FLAC\flac.exe
Additional command line options : -V -8 -T "artist=%a" -T "title=%t" -T "album=%g" -T "date=%y" -T "tracknumber=%n" -T "genre=%m" %s
TOC of the extracted CD
Track | Start | Length | Start sector | End sector
---------------------------------------------------------
1 | 0:00.00 | 8:59.64 | 0 | 40488
2 | 8:59.64 | 4:22.60 | 40489 | 60198
3 | 13:22.49 | 9:49.50 | 60199 | 104423
4 | 23:12.24 | 2:21.07 | 104424 | 115005
5 | 25:33.31 | 3:27.13 | 115006 | 130543
6 | 29:00.44 | 6:41.34 | 130544 | 160652
7 | 35:42.03 | 3:00.05 | 160653 | 174157
8 | 38:42.08 | 14:01.14 | 174158 | 237246
Track 1
Filename G:\My Music\Richard Crandell - 2007 - Spring Steel\01 - Inner Circle.wav
Pre-gap length 0:00:02.00
Peak level 97.7 %
Track quality 100.0 %
Test CRC 616EFBC1
Copy CRC 616EFBC1
Track not present in AccurateRip database
Copy OK
Track 2
Filename G:\My Music\Richard Crandell - 2007 - Spring Steel\02 - Etude In E.wav
Peak level 76.1 %
Track quality 100.0 %
Test CRC 02025C80
Copy CRC 02025C80
Track not present in AccurateRip database
Copy OK
Track 3
Filename G:\My Music\Richard Crandell - 2007 - Spring Steel\03 - Zen Dagger.wav
Peak level 97.7 %
Track quality 100.0 %
Test CRC CA031186
Copy CRC CA031186
Track not present in AccurateRip database
Copy OK
Track 4
Filename G:\My Music\Richard Crandell - 2007 - Spring Steel\04 - Japanese Lullaby.wav
Peak level 68.8 %
Track quality 99.9 %
Test CRC BEBCFCA6
Copy CRC BEBCFCA6
Track not present in AccurateRip database
Copy OK
Track 5
Filename G:\My Music\Richard Crandell - 2007 - Spring Steel\05 - Spring Steel.wav
Peak level 74.3 %
Track quality 100.0 %
Test CRC F48679E4
Copy CRC F48679E4
Track not present in AccurateRip database
Copy OK
Track 6
Filename G:\My Music\Richard Crandell - 2007 - Spring Steel\06 - Beckoning.wav
Peak level 73.2 %
Track quality 99.9 %
Test CRC 3A5C7469
Copy CRC 3A5C7469
Track not present in AccurateRip database
Copy OK
Track 7
Filename G:\My Music\Richard Crandell - 2007 - Spring Steel\07 - Seven.wav
Peak level 97.7 %
Track quality 100.0 %
Test CRC 48103D98
Copy CRC 48103D98
Track not present in AccurateRip database
Copy OK
Track 8
Filename G:\My Music\Richard Crandell - 2007 - Spring Steel\08 - The River.wav
Pre-gap length 0:00:01.01
Peak level 94.6 %
Track quality 100.0 %
Test CRC 74550CDD
Copy CRC 74550CDD
Accurately ripped (confidence 2) [C3A55ECD]
Copy OK
1 track(s) accurately ripped
7 track(s) not present in the AccurateRip database
Some tracks could not be verified as accurate
No errors occurred
End of status report
 
Tzadik
Another remarkable recording by the quirky Oregon composer/performer Richard Crandell, whose first delightful CD for Tzadik Mbira Magic hit several Best Ten lists for 2004. Adapting and retuning traditional Shona instruments, Crandell draws upon the work of Steve Reich, Terry Riley and John Fahey to create a hypnotic minimalist world through the use of repetition, variation and phasing. Charming and original, this is beautiful and subtle music from a recently rediscovered maverick composer out of the early days of west coast minimalism.
Kalimba/Mbira
Download available for power users only.
07:13
237
Нет комментариев. Ваш будет первым!