Вы используете незарегистрированную версию компонента "Вкладки"!

Поиск

(Modern Creative) John Lindberg (w. Albert Mangelsdorff, Ed Thigpen, Eric Watson) - Resurrection of a Dormant Soul {Black Saint 120172-2, Italy} - 1996, FLAC (tracks+.cue) lossless

(Modern Creative) John Lindberg (w. Albert Mangelsdorff, Ed Thigpen, Eric Watson) - Resurrection of a Dormant Soul {Black Saint 120172-2, Italy} - 1996, FLAC (tracks+.cue) lossless
Треклист:
John Lindberg (with Albert Mangelsdorff, Ed Thigpen, Eric Watson) - Resurrection of a Dormant Soul
Жанр: Modern Creative
Страна-производитель диска: Italy
Год издания диска: 1996
Издатель (лейбл): Black Saint
Номер по каталогу: 120172-2
Аудио кодек: FLAC (*.flac)
Тип рипа: tracks+.cue
Битрейт аудио: lossless
Продолжительность: 0:52:18
Источник (релизер): GatoMedio
Наличие сканов в содержимом раздачи: да
Треклист:
1. Resurrection of a Dormant Soul (John Lindberg) - 8:48
2. Quartet Pluckin' (John Lindberg) - 8:01
3. Dots, Ditches And Scratches (Albert Mangelsdorff) - 8:22
4. Conspiracy (Eric Watson) - 7:04
5. E.T.P. (Ed Thigpen) - 4:45
6. Birds of a Feather (John Lindberg, Albert Mangelsdorff) - 3:39
7. X. 1 (John Lindberg) - 11:38
Recorded on February 9 and 10, 1995, at Mu Rec Studio, Milan, Italy
Personnel:
John Lindberg - bass
Albert Mangelsdorff - trombone
Ed Thigpen - drums
Eric Watson - piano
Engineer: Paolo Falascone
Producer: Giovanni Bonandrini
 
Лог создания рипа (EAC Log)
Exact Audio Copy V0.99 prebeta 5 from 4. May 2009
EAC extraction logfile from 17. February 2011, 23:50
John Lindberg / Resurrection of a Dormant Soul
Used drive : HL-DT-STDVD-RAM GSA-H55N Adapter: 0 ID: 0
Read mode : Secure
Utilize accurate stream : Yes
Defeat audio cache : Yes
Make use of C2 pointers : No
Read offset correction : 102
Overread into Lead-In and Lead-Out : No
Fill up missing offset samples with silence : Yes
Delete leading and trailing silent blocks : No
Null samples used in CRC calculations : Yes
Used interface : Native Win32 interface for Win NT & 2000
Gap handling : Appended to previous track
Used output format : Internal WAV Routines
Sample format : 44.100 Hz; 16 Bit; Stereo
TOC of the extracted CD
Track | Start | Length | Start sector | End sector
---------------------------------------------------------
1 | 0:00.00 | 8:48.02 | 0 | 39601
2 | 8:48.02 | 8:01.23 | 39602 | 75699
3 | 16:49.25 | 8:22.50 | 75700 | 113399
4 | 25:12.00 | 7:04.42 | 113400 | 145241
5 | 32:16.42 | 4:45.11 | 145242 | 166627
6 | 37:01.53 | 3:39.22 | 166628 | 183074
7 | 40:41.00 | 11:37.68 | 183075 | 235417
Track 1
Filename D:\_Music myRips\John Lindberg - Resurrection of a Dormant Soul (1996)\John Lindberg - Resurrection of a Dormant Soul (1996) wav\01 - Resurrection of a Dormant Soul.wav
Pre-gap length 0:00:02.00
Peak level 94.1 %
Track quality 100.0 %
Test CRC 80B76222
Copy CRC 80B76222
Track not present in AccurateRip database
Copy OK
Track 2
Filename D:\_Music myRips\John Lindberg - Resurrection of a Dormant Soul (1996)\John Lindberg - Resurrection of a Dormant Soul (1996) wav\02 - Quartet Pluckin'.wav
Peak level 77.9 %
Track quality 100.0 %
Test CRC AF6C6211
Copy CRC AF6C6211
Track not present in AccurateRip database
Copy OK
Track 3
Filename D:\_Music myRips\John Lindberg - Resurrection of a Dormant Soul (1996)\John Lindberg - Resurrection of a Dormant Soul (1996) wav\03 - Dots, Ditches And Scratches.wav
Peak level 83.5 %
Track quality 100.0 %
Test CRC 3C5CA572
Copy CRC 3C5CA572
Track not present in AccurateRip database
Copy OK
Track 4
Filename D:\_Music myRips\John Lindberg - Resurrection of a Dormant Soul (1996)\John Lindberg - Resurrection of a Dormant Soul (1996) wav\04 - Conspiracy.wav
Peak level 85.5 %
Track quality 100.0 %
Test CRC EBE7ACC3
Copy CRC EBE7ACC3
Track not present in AccurateRip database
Copy OK
Track 5
Filename D:\_Music myRips\John Lindberg - Resurrection of a Dormant Soul (1996)\John Lindberg - Resurrection of a Dormant Soul (1996) wav\05 - E.T.P..wav
Peak level 78.6 %
Track quality 100.0 %
Test CRC 3AC5AD7D
Copy CRC 3AC5AD7D
Track not present in AccurateRip database
Copy OK
Track 6
Filename D:\_Music myRips\John Lindberg - Resurrection of a Dormant Soul (1996)\John Lindberg - Resurrection of a Dormant Soul (1996) wav\06 - Birds Of A Feather.wav
Peak level 99.5 %
Track quality 100.0 %
Test CRC F4254E2E
Copy CRC F4254E2E
Track not present in AccurateRip database
Copy OK
Track 7
Filename D:\_Music myRips\John Lindberg - Resurrection of a Dormant Soul (1996)\John Lindberg - Resurrection of a Dormant Soul (1996) wav\07 - X. 1.wav
Peak level 96.2 %
Track quality 100.0 %
Test CRC B39D2CDE
Copy CRC B39D2CDE
Track not present in AccurateRip database
Copy OK
None of the tracks are present in the AccurateRip database
No errors occurred
End of status report
 
Содержание индексной карты (.CUE)
REM DISCID 430C4207
REM COMMENT "ExactAudioCopy v0.99pb5"
PERFORMER "John Lindberg"
TITLE "Resurrection of a Dormant Soul"
FILE "01 - Resurrection of a Dormant Soul.wav" WAVE
TRACK 01 AUDIO
TITLE "Resurrection of a Dormant Soul"
PERFORMER "John Lindberg"
INDEX 01 00:00:00
FILE "02 - Quartet Pluckin'.wav" WAVE
TRACK 02 AUDIO
TITLE "Quartet Pluckin'"
PERFORMER "John Lindberg"
INDEX 01 00:00:00
FILE "03 - Dots, Ditches And Scratches.wav" WAVE
TRACK 03 AUDIO
TITLE "Dots, Ditches And Scratches"
PERFORMER "John Lindberg"
INDEX 01 00:00:00
FILE "04 - Conspiracy.wav" WAVE
TRACK 04 AUDIO
TITLE "Conspiracy"
PERFORMER "John Lindberg"
INDEX 01 00:00:00
FILE "05 - E.T.P..wav" WAVE
TRACK 05 AUDIO
TITLE "E.T.P."
PERFORMER "John Lindberg"
INDEX 01 00:00:00
FILE "06 - Birds Of A Feather.wav" WAVE
TRACK 06 AUDIO
TITLE "Birds Of A Feather"
PERFORMER "John Lindberg"
INDEX 01 00:00:00
FILE "07 - X. 1.wav" WAVE
TRACK 07 AUDIO
TITLE "X. 1"
PERFORMER "John Lindberg"
INDEX 01 00:00:00
 
Об альбоме (сборнике)
Though logistics probably rule out their coming together on more than an annual basis-Lindberg is a U.S. resident, the rest are spread across Europe and Scandanavia-this assemblage of the bassist-leader, pianist Eric Watson, and trombonist Albert Mangelsdorff and drummer Ed Thigpen, certainly feels like a band. This being their third outing together they have developed an admirable simpatico and complement each other with obvious relish and enjoyment. They have established a real dialogue that is rare in musicians with such disparate backgrounds. And though Lindberg is the listed leader, this really feels like a working co-op.
On his "Quartet Pluckin'," the bassist's alternately plucked/bow slapped bass working with Thigpen's rim and drum shell stick work creates a percussive effect brimming with tension, providing a lively pathway to Mangelsdorff and Watson's conversation. On his "Dots, Ditches, and Scratches," Mangelsdorff's multiphonic intro blossoms into a swinger propelled by Thigpen's brush work, an area where he has few if any peers. "E.T.P." is a bop-ish Thigpen line that finds Watson spinning out some fine Monk-ery and from there it's outward bound via the 'bone & bass duet that introduces Lindberg's "Birds Of A Feather." ~Willard Jenkins, jazztimes.com
По всем вопросам пишите личное сообщение пользователю M0p94ok.
11:27
322
Нет комментариев. Ваш будет первым!