Поиск

(Modern Creative, Fusion, Contemporary Jazz) [CD] Tony Hymas (w/ Tony Coe, Hugh Burns, Chris Laurence, Stan Sulzmann a.o.) - Flying Fortress - 1988, FLAC (tracks+.cue), lossless

Треклист:
Tony Hymas / Flying Fortress
Жанр: Modern Creative, Fusion, Contemporary Jazz
Носитель: CD
Страна-производитель диска: France
Год издания: 1988
Издатель (лейбл): Nato Records
Номер по каталогу: nato CD 1435
Страна исполнителя (группы): US
Аудиокодек: FLAC (*.flac)
Тип рипа: tracks+.cue
Битрейт аудио: lossless
Продолжительность: 40:17
Источник (релизер): свой фирменный диск
Наличие сканов в содержимом раздачи:
Треклист:
1. 6 000 Miles Away 1:38
2. The Great Wheel 3:35
3. So English 2:26
4. Icu 4:20
5. Bleak Bleak 3:34
6. Lunch Time Automatic Ballet 3:54
7. Lullaby 4:47
8. My Arabian Dream 4:45
9. Superhero 2 4:01
10. Pictures Of Departure 4:44
11. Flying Fortress 2:12
 
Лог создания рипа
Exact Audio Copy V1.0 beta 3 from 29. August 2011
EAC extraction logfile from 17. July 2014, 12:53
Tony Hymas / Flying Fortress
Used drive : PIONEER DVD-RW DVR-115D Adapter: 0 ID: 0
Read mode : Secure
Utilize accurate stream : Yes
Defeat audio cache : Yes
Make use of C2 pointers : No
Read offset correction : 48
Overread into Lead-In and Lead-Out : No
Fill up missing offset samples with silence : Yes
Delete leading and trailing silent blocks : No
Null samples used in CRC calculations : Yes
Used interface : Installed external ASPI interface
Gap handling : Appended to previous track
Used output format : User Defined Encoder
Selected bitrate : 896 kBit/s
Quality : High
Add ID3 tag : No
Command line compressor : C:\Program Files\Exact Audio Copy\FLAC\FLAC.EXE
Additional command line options : -6 -V -T "ARTIST=%artist%" -T "TITLE=%title%" -T "ALBUM=%albumtitle%" -T "DATE=%year%" -T "TRACKNUMBER=%tracknr%" -T "GENRE=%genre%" -T "COMMENT=%comment%" -T "BAND=%albuminterpret%" -T "COMPOSER=%composer%" %haslyrics%--tag-from-file=LYRICS="%lyricsfile%"%haslyrics% -T "DISCNUMBER=%cdnumber%" -T "TOTALDISCS=%totalcds%" -T "TOTALTRACKS=%numtracks%" %hascover%--picture="%coverfile%"%hascover% %source% -o %dest%
TOC of the extracted CD
Track | Start | Length | Start sector | End sector
---------------------------------------------------------
1 | 0:00.33 | 1:38.42 | 33 | 7424
2 | 1:39.00 | 3:40.38 | 7425 | 23962
3 | 5:19.38 | 2:28.50 | 23963 | 35112
4 | 7:48.13 | 4:22.30 | 35113 | 54792
5 | 12:10.43 | 3:35.02 | 54793 | 70919
6 | 15:45.45 | 3:58.10 | 70920 | 88779
7 | 19:43.55 | 4:47.65 | 88780 | 110369
8 | 24:31.45 | 4:46.58 | 110370 | 131877
9 | 29:18.28 | 3:55.27 | 131878 | 149529
10 | 33:13.55 | 4:51.13 | 149530 | 171367
11 | 38:04.68 | 2:12.65 | 171368 | 181332
Track 1
Filename D:\zzz\01 - 6000 Miles Away.wav
Pre-gap length 0:00:02.33
Peak level 31.7 %
Extraction speed 3.5 X
Track quality 100.0 %
Test CRC 98FDB40A
Copy CRC 98FDB40A
Accurately ripped (confidence 1) [06CA67A4] (AR v2)
Copy OK
Track 2
Filename D:\zzz\02 - The Great Wheel.wav
Peak level 94.6 %
Extraction speed 4.4 X
Track quality 100.0 %
Test CRC 8DB05AAB
Copy CRC 8DB05AAB
Accurately ripped (confidence 1) [221919D8] (AR v2)
Copy OK
Track 3
Filename D:\zzz\03 - So English.wav
Pre-gap length 0:00:03.45
Peak level 31.9 %
Extraction speed 4.4 X
Track quality 100.0 %
Test CRC A07A1507
Copy CRC A07A1507
Accurately ripped (confidence 1) [7DB58635] (AR v2)
Copy OK
Track 4
Filename D:\zzz\04 - ICU.wav
Pre-gap length 0:00:01.35
Peak level 74.2 %
Extraction speed 5.1 X
Track quality 100.0 %
Test CRC 5602E9DD
Copy CRC 5602E9DD
Accurately ripped (confidence 1) [A8481066] (AR v2)
Copy OK
Track 5
Filename D:\zzz\05 - Bleak Bleak.wav
Pre-gap length 0:00:01.28
Peak level 29.1 %
Extraction speed 4.7 X
Track quality 99.9 %
Test CRC C15DC8CE
Copy CRC C15DC8CE
Accurately ripped (confidence 1) [A1C82811] (AR v2)
Copy OK
Track 6
Filename D:\zzz\06 - Lunch Time Automatic Ballet.wav
Pre-gap length 0:00:02.62
Peak level 61.1 %
Extraction speed 5.8 X
Track quality 100.0 %
Test CRC 536782F5
Copy CRC 536782F5
Accurately ripped (confidence 1) [157BE692] (AR v2)
Copy OK
Track 7
Filename D:\zzz\07 - Lullaby.wav
Pre-gap length 0:00:03.02
Peak level 60.4 %
Extraction speed 6.2 X
Track quality 100.0 %
Test CRC D71408FC
Copy CRC D71408FC
Accurately ripped (confidence 1) [52ECFA96] (AR v2)
Copy OK
Track 8
Filename D:\zzz\08 - My Arabian Dream.wav
Peak level 96.7 %
Extraction speed 6.5 X
Track quality 100.0 %
Test CRC 4F30A0FD
Copy CRC 4F30A0FD
Accurately ripped (confidence 1) [63440B06] (AR v2)
Copy OK
Track 9
Filename D:\zzz\09 - Superhero 2.wav
Peak level 70.2 %
Extraction speed 5.9 X
Track quality 99.9 %
Test CRC FF930543
Copy CRC FF930543
Accurately ripped (confidence 1) [16D9C632] (AR v2)
Copy OK
Track 10
Filename D:\zzz\10 - Pictures Of Departure.wav
Peak level 99.0 %
Extraction speed 4.9 X
Track quality 99.8 %
Test CRC 10798B28
Copy CRC 10798B28
Accurately ripped (confidence 1) [FDFE4888] (AR v2)
Copy OK
Track 11
Filename D:\zzz\11 - Flying Fortress.wav
Pre-gap length 0:00:00.45
Peak level 85.5 %
Extraction speed 6.5 X
Track quality 100.0 %
Test CRC 3C253CB5
Copy CRC 3C253CB5
Accurately ripped (confidence 1) [E6E17B8D] (AR v2)
Copy OK
All tracks accurately ripped
No errors occurred
End of status report
==== Log checksum A38D8B09D64754D943CD54ECB9F845A1B817DEAEC232AC62BB59857B2EB0E1CB ====
 
Содержание индексной карты (.CUE)
REM GENRE Fusion
REM DATE 1988
REM DISCID 8B09710B
REM COMMENT "ExactAudioCopy v1.0b3"
PERFORMER "Tony Hymas"
TITLE "Flying Fortress"
FILE "01 - 6000 Miles Away.wav" WAVE
TRACK 01 AUDIO
TITLE "6000 Miles Away"
PERFORMER "Tony Hymas"
PREGAP 00:00:33
INDEX 01 00:00:00
FILE "02 - The Great Wheel.wav" WAVE
TRACK 02 AUDIO
TITLE "The Great Wheel"
PERFORMER "Tony Hymas"
INDEX 01 00:00:00
TRACK 03 AUDIO
TITLE "So English"
PERFORMER "Tony Hymas"
INDEX 00 03:36:68
FILE "03 - So English.wav" WAVE
INDEX 01 00:00:00
TRACK 04 AUDIO
TITLE "ICU"
PERFORMER "Tony Hymas"
INDEX 00 02:27:15
FILE "04 - ICU.wav" WAVE
INDEX 01 00:00:00
TRACK 05 AUDIO
TITLE "Bleak Bleak"
PERFORMER "Tony Hymas"
INDEX 00 04:21:02
FILE "05 - Bleak Bleak.wav" WAVE
INDEX 01 00:00:00
TRACK 06 AUDIO
TITLE "Lunch Time Automatic Ballet"
PERFORMER "Tony Hymas"
INDEX 00 03:32:15
FILE "06 - Lunch Time Automatic Ballet.wav" WAVE
INDEX 01 00:00:00
TRACK 07 AUDIO
TITLE "Lullaby"
PERFORMER "Tony Hymas"
INDEX 00 03:55:08
FILE "07 - Lullaby.wav" WAVE
INDEX 01 00:00:00
FILE "08 - My Arabian Dream.wav" WAVE
TRACK 08 AUDIO
TITLE "My Arabian Dream"
PERFORMER "Tony Hymas"
INDEX 01 00:00:00
FILE "09 - Superhero 2.wav" WAVE
TRACK 09 AUDIO
TITLE "Superhero 2"
PERFORMER "Tony Hymas"
INDEX 01 00:00:00
FILE "10 - Pictures Of Departure.wav" WAVE
TRACK 10 AUDIO
TITLE "Pictures Of Departure"
PERFORMER "Tony Hymas"
INDEX 01 00:00:00
TRACK 11 AUDIO
TITLE "Flying Fortress"
PERFORMER "Tony Hymas"
INDEX 00 04:50:43
FILE "11 - Flying Fortress.wav" WAVE
INDEX 01 00:00:00
 
Лог проверки качества
d:\>d:\aucdtect -d/-m0 d:\zzz\*.wav
auCDtect: CD records authenticity detector, version 0.8.2
Copyright (c) 2004 Oleg Berngardt. All rights reserved.
Copyright (c) 2004 Alexander Djourik. All rights reserved.
------------------------------------------------------------
Processing file: [01. 6000 Miles Away.wav]
------------------------------------------------------------
This track looks like CDDA with probability 100%
------------------------------------------------------------
Processing file: [02. The Great Wheel.wav]
------------------------------------------------------------
This track looks like CDDA with probability 100%
------------------------------------------------------------
Processing file: [03. So English.wav]
------------------------------------------------------------
This track looks like CDDA with probability 100%
------------------------------------------------------------
Processing file: [04. ICU.wav]
------------------------------------------------------------
This track looks like CDDA with probability 100%
------------------------------------------------------------
Processing file: [05. Bleak Bleak.wav]
------------------------------------------------------------
This track looks like CDDA with probability 100%
------------------------------------------------------------
Processing file: [06. Lunch Time Automatic Ballet.wav]
------------------------------------------------------------
This track looks like CDDA with probability 100%
------------------------------------------------------------
Processing file: [07. Lullaby.wav]
------------------------------------------------------------
This track looks like CDDA with probability 100%
------------------------------------------------------------
Processing file: [08. My Arabian Dream.wav]
------------------------------------------------------------
This track looks like CDDA with probability 99%
------------------------------------------------------------
Processing file: [09. Superhero 2.wav]
------------------------------------------------------------
This track looks like CDDA with probability 100%
------------------------------------------------------------
Processing file: [10. Pictures Of Departure.wav]
------------------------------------------------------------
This track looks like CDDA with probability 100%
------------------------------------------------------------
Processing file: [11. Flying Fortress.wav]
------------------------------------------------------------
This track looks like CDDA with probability 100%
------------------------------------------------------------
Final Conclusion:
------------------------------------------------------------
These tracks looks like CDDA with probability 100%
Доп. информация:
 
Album Info
Compose, programme et joue par Tony Hymas
Enregistre par Dave Hunt au Studio DH Audio Engineering 1987/88
Pochette: Pierre Cornuel
Photographie: Caroline Forbes
Produit par Jean Rochard, NATO, 1, Rue des Tanneurs 72430 Chantenay-Villedieu
Digital mastering: Translab
Pressage MPO
Photocomposition: Diatro 75
Photogravure: Positif
Imprimerie: Offset France
 
Состав
Tony Hymas and
Invites:
Laura Davis: chant (7,10)
Lis Perry: violon (2,5,7,8,10)
Tony Coe: saxophone tenor (4,7,8), clarinette (2,3)
Hugh Burns: guitare (1,2,8)
Chris Laurence: contrebasse (2,3,5,8)
Stan Sulzmann: saxophone tenor (4,7,8,11), saxophone soprano (2,5)
Frank Ricotti: vibraphone (2), percussions (2,4,8,9)
Приватный:
Нет (DHT включён)
Размер:
182.93 Мб (191,819,733 байт) » файлов: 18
Участники:
0 раздают, 0 качают (0 участников всего)
Внешние участники:
2 раздают, 1 качают (3 участников всего) [ Обновить ]
Есть вопросы - пишите личное сообщение пользователю M0p94ok.
14:09
46
Нет комментариев. Ваш будет первым!