Вы используете незарегистрированную версию компонента "Вкладки"!

Поиск

(Modern Creative / Free Improvisation / Avant-Garde) Nels Cline / Andrea Parkins / Tom Rainey - Downpour - 2007, FLAC (tracks+.cue), lossless

(Modern Creative / Free Improvisation / Avant-Garde) Nels Cline / Andrea Parkins / Tom Rainey - Downpour - 2007, FLAC (tracks+.cue), lossless
Треклист:
Nels Cline / Andrea Parkins / Tom Rainey - Downpour
Жанр: Modern Creative / Free Improvisation / Avant-Garde
Год выпуска диска: 2007
Производитель диска: Canada (Victo) [VICTO CD 104]
Аудио кодек: FLAC
Тип рипа: tracks+.cue
Битрейт аудио: lossless
Продолжительность: 59:41
Трэклист:
Nels Cline - electric guitar
Andrea Parkins - accordion, piano, keyboards, sampler, sound effects
Tom Rainey - drums, percussion
1. Downpour 1
2. Downpour 2
3. Moss, Bed
 
.log
Exact Audio Copy V0.99 prebeta 4 from 23. January 2008
EAC extraction logfile from 2. January 2009, 15:51
Nels Cline, Andrea Parkins & Tom Rainey / Downpour
Used drive : Optiarc DVD RW AD-7200A Adapter: 1 ID: 0
Read mode : Secure
Utilize accurate stream : Yes
Defeat audio cache : Yes
Make use of C2 pointers : No
Read offset correction : 48
Overread into Lead-In and Lead-Out : No
Fill up missing offset samples with silence : Yes
Delete leading and trailing silent blocks : No
Null samples used in CRC calculations : Yes
Used interface : Native Win32 interface for Win NT & 2000
Gap handling : Appended to previous track
Used output format : User Defined Encoder
Selected bitrate : 768 kBit/s
Quality : High
Add ID3 tag : No
Command line compressor : C:\Program Files\Exact Audio Copy\Flac\flac.exe
Additional command line options : -V -8 -T "artist=%a" -T "title=%t" -T "album=%g" -T "date=%y" -T "tracknumber=%n" -T "genre=%m" %s
TOC of the extracted CD
Track | Start | Length | Start sector | End sector
---------------------------------------------------------
1 | 0:00.00 | 37:22.22 | 0 | 168171
2 | 37:22.22 | 18:15.52 | 168172 | 250348
3 | 55:37.74 | 4:04.43 | 250349 | 268691
Track 1
Filename D:\Nels Cline, Andrea Parkins & Tom Rainey - Downpour (2007, VICTO CD 104) [FLAC]\01 - Downpour 1.wav
Pre-gap length 0:00:02.00
Peak level 100.0 %
Track quality 100.0 %
Copy CRC 00B07055
Copy OK
Track 2
Filename D:\Nels Cline, Andrea Parkins & Tom Rainey - Downpour (2007, VICTO CD 104) [FLAC]\02 - Downpour 2.wav
Peak level 100.0 %
Track quality 100.0 %
Copy CRC E60F7E83
Copy OK
Track 3
Filename D:\Nels Cline, Andrea Parkins & Tom Rainey - Downpour (2007, VICTO CD 104) [FLAC]\03 - Moss, Bed.wav
Peak level 100.0 %
Track quality 100.0 %
Copy CRC 4EB8FD74
Copy OK
No errors occurred
End of status report
Any questions -> support@pro-jazz.com. По всем вопросам пишите -> support@pro-jazz.com
10:05
113
Нет комментариев. Ваш будет первым!