Вы используете незарегистрированную версию компонента "Вкладки"!

Поиск

(Modern Creative, Free improvisation) Annie Lewandowski & Fred Frith - Long as in Short, Walk as in Run - 2011, FLAC (tracks), lossless

Треклист:
Annie Lewandowski & Fred Frith / Long as in Short, Walk as in Run
Жанр: Modern Creative, Free improvisation
Страна-производитель диска: Denmark
Год издания: 2011
Издатель (лейбл): Ninth World Music
Номер по каталогу: NWM 047CD
Аудиокодек: FLAC (*.flac)
Тип рипа: tracks
Битрейт аудио: lossless
Продолжительность: 41:56
Источник (релизер): mendali
Наличие сканов в содержимом раздачи: нет
Треклист:
1 Night Owls 11:30
2 Standsee Warble 2:41
3 Ridgesia 4:32
4 My Winter Condition 3:21
5 Stared At The Bird Statue And Tried To Think 5:48
6 Sympathy Twigs 7:33
7 Dockandoilish 4:38
8 Ice Canvas 1:53
 
Лог создания рипа
X Lossless Decoder version 20110821 (136.1)
XLD extraction logfile from 2012-04-13 01:13:40 -0400
Annie Lewandoski and Fred Frith / Long as in Short, Walk as in Run
Used drive : MATSHITA DVD-R UJ-857E (revision ZB0E)
Ripper mode : XLD Secure Ripper
Disable audio cache : OK for the drive with a cache less than 1375KiB
Make use of C2 pointers : NO
Read offset correction : 102
Max retry count : 100
Gap status : Analyzed, Appended
TOC of the extracted CD
Track | Start | Length | Start sector | End sector
---------------------------------------------------------
1 | 00:00:00 | 11:30:29 | 0 | 51778
2 | 11:30:29 | 02:40:52 | 51779 | 63830
3 | 14:11:06 | 04:31:73 | 63831 | 84228
4 | 18:43:04 | 03:21:29 | 84229 | 99332
5 | 22:04:33 | 05:48:16 | 99333 | 125448
6 | 27:52:49 | 07:33:09 | 125449 | 159432
7 | 35:25:58 | 04:37:71 | 159433 | 180278
8 | 40:03:54 | 01:53:13 | 180279 | 188766
AccurateRip Summary
Disc not found in AccurateRip DB.
All Tracks
Statistics
Read error : 0
Jitter error (maybe fixed) : 0
Retry sector count : 0
Damaged sector count : 0
Track 01
Filename : /Volumes/MattyDrive/Torrents/01 Annie Lewandoski and Fred Frith - Night Owls.flac
Pre-gap length : 00:02:00
CRC32 hash (test run) : FFB64A59
CRC32 hash : FFB64A59
CRC32 hash (skip zero) : 705B794D
AccurateRip signature : BBC08556
->Track not present in AccurateRip database.
Statistics
Read error : 0
Jitter error (maybe fixed) : 0
Retry sector count : 0
Damaged sector count : 0
Track 02
Filename : /Volumes/MattyDrive/Torrents/02 Annie Lewandoski and Fred Frith - Standsee Warble.flac
Pre-gap length : 00:02:00
CRC32 hash (test run) : 90D906F8
CRC32 hash : 90D906F8
CRC32 hash (skip zero) : C3782A58
AccurateRip signature : 47211364
->Track not present in AccurateRip database.
Statistics
Read error : 0
Jitter error (maybe fixed) : 0
Retry sector count : 0
Damaged sector count : 0
Track 03
Filename : /Volumes/MattyDrive/Torrents/03 Annie Lewandoski and Fred Frith - Ridgesia.flac
Pre-gap length : 00:02:00
CRC32 hash (test run) : A4B17A91
CRC32 hash : A4B17A91
CRC32 hash (skip zero) : 18BEE3F1
AccurateRip signature : F1FE2032
->Track not present in AccurateRip database.
Statistics
Read error : 0
Jitter error (maybe fixed) : 0
Retry sector count : 0
Damaged sector count : 0
Track 04
Filename : /Volumes/MattyDrive/Torrents/04 Annie Lewandoski and Fred Frith - My Winter Condition.flac
Pre-gap length : 00:02:00
CRC32 hash (test run) : C689C40C
CRC32 hash : C689C40C
CRC32 hash (skip zero) : 1C5BDAA2
AccurateRip signature : 443143EA
->Track not present in AccurateRip database.
Statistics
Read error : 0
Jitter error (maybe fixed) : 0
Retry sector count : 0
Damaged sector count : 0
Track 05
Filename : /Volumes/MattyDrive/Torrents/05 Annie Lewandoski and Fred Frith - Stared at the bird statue and tried to think.flac
Pre-gap length : 00:02:00
CRC32 hash (test run) : 263E3B44
CRC32 hash : 263E3B44
CRC32 hash (skip zero) : 6BDFFF61
AccurateRip signature : FF50A321
->Track not present in AccurateRip database.
Statistics
Read error : 0
Jitter error (maybe fixed) : 0
Retry sector count : 0
Damaged sector count : 0
Track 06
Filename : /Volumes/MattyDrive/Torrents/06 Annie Lewandoski and Fred Frith - Sympathy Twigs.flac
Pre-gap length : 00:03:00
CRC32 hash (test run) : 4E469538
CRC32 hash : 4E469538
CRC32 hash (skip zero) : 328CB5EA
AccurateRip signature : F1442C51
->Track not present in AccurateRip database.
Statistics
Read error : 0
Jitter error (maybe fixed) : 0
Retry sector count : 0
Damaged sector count : 0
Track 07
Filename : /Volumes/MattyDrive/Torrents/07 Annie Lewandoski and Fred Frith - Dockandoilish.flac
Pre-gap length : 00:01:37
CRC32 hash (test run) : 5FF3045C
CRC32 hash : 5FF3045C
CRC32 hash (skip zero) : 84F0B2AD
AccurateRip signature : 74408C92
->Track not present in AccurateRip database.
Statistics
Read error : 0
Jitter error (maybe fixed) : 0
Retry sector count : 0
Damaged sector count : 0
Track 08
Filename : /Volumes/MattyDrive/Torrents/08 Annie Lewandoski and Fred Frith - Ice Canvas.flac
Pre-gap length : 00:02:00
CRC32 hash (test run) : 29B96498
CRC32 hash : 29B96498
CRC32 hash (skip zero) : 2FA2BAE5
AccurateRip signature : 569399F3
->Track not present in AccurateRip database.
Statistics
Read error : 0
Jitter error (maybe fixed) : 0
Retry sector count : 0
Damaged sector count : 0
No errors occurred
End of status report
 
Об альбоме (сборнике)
Recorded in the Littlefield Concert Hall,
Mills College, May 4, 2010
Engineer: Barton McGuire
Mixed by Annie Lewandowski, Southampton, August 2010
Mastered at Headless Buddha, Oakland, January 12, 2011
Engineer: Myles Boisen
 
Состав
Guitar - Fred Frith
Prepared Piano - Annie Lewandowski
Any questions -> support@pro-jazz.com. По всем вопросам пишите -> support@pro-jazz.com
23:57
136
Нет комментариев. Ваш будет первым!