Поиск

(Modern Creative, ethnic, tape collages, Sublime Frequencies) Bill Laswell's Material presents : Oz Fritz - All Around The World - 2004, FLAC (image+.cue), lossless

Треклист:
Bill Laswell's Material presents : Oz Fritz - All Around The World
Жанр: Modern Creative, ethnic, tape collages, Sublime Frequencies
Год выпуска диска: 2004
Производитель диска: Belgium (Sub Rosa)
Аудио кодек: FLAC
Тип рипа: image+.cue
Битрейт аудио: lossless
Продолжительность: 52.38
Трэклист:
1. What Is Your Job? 10:49
2. Our Lady 01:32
3. Easter Sunday Midnight Mass 04:25
4. Temple Drumming 06:14
5. Marralyil 04:03
6. West African Night 03:25
7. Three Gods and a Chariot 04:48
8. Belt of Sacre Couer/ Showtime at Giza 05:48
9. Next Stop Is Bedford Avenue 02:15
10. Holy Beggars 04:28
11. All Around The World 04:45
Доп. информация: Оз Фриц - знаменитый звукорежиссер, записавший большинство дисков Ласвелла и Co. Именно благодаря его стараниям имя Ласвелла стало ассоциироваться с безупречным качеством звукозаписи. Альбом состоит из звуковых коллажей, при создании которых использовались как field recordings самого Фрица, сделанные им в самых различных уголках планеты, так и диски почтенного лейбла Sublime Frequencies, специализирующегося на поиске и дальнейшем выпуске различных почти неправдоподобных музыкальных раритетов из экзотических стран (именно на нем, в свое время, выходили всякого рода тайские и вьетнамские бит группы, диски с названием "гитарная музыка западной сахары" и т.п).
 
eac log
Exact Audio Copy V0.99 prebeta 4 from 23. January 2008
Отчёт EAC об извлечении, выполненном 18. января 2009, 23:03
Oz Fritz / All Around The World
Дисковод: Optiarc DVD RW AD-7170A Adapter: 0 ID: 1
Режим чтения : Достоверность
Использование точного потока : Да
Отключение кэша аудио : Да
Использование указателей C2 : Нет
Коррекция смещения при чтении : 48
Способность читать области Lead-in и Lead-out : Нет
Заполнение пропущенных сэмплов тишиной : Да
Удаление блоков с тишиной в начале и конце : Нет
При вычислениях CRC использовались нулевые сэмплы : Да
Интерфейс : Установленный внешний ASPI-интерфейс
Выходной формат : Пользовательский кодировщик
Выбранный битрейт : 768 kBit/s
Качество : Высокий
Добавление ID3-тэга : Нет
Утилита сжатия : C:\Program Files (x86)\Exact Audio Copy\FLAC\FLAC.EXE
Дополнительные параметры : -6 -V -T "ARTIST=%a" -T "TITLE=%t" -T "ALBUM=%g" -T "DATE=%y" -T "TRACKNUMBER=%n" -T "GENRE=%m" -T "COMMENT=%e" %s -o %d
TOC извлечённого CD
Трек | Старт | Длительность | Начальный сектор | Конечный сектор
---------------------------------------------------------------------
1 | 0:00.00 | 10:49.43 | 0 | 48717
2 | 10:49.43 | 1:32.32 | 48718 | 55649
3 | 12:22.00 | 4:25.33 | 55650 | 75557
4 | 16:47.33 | 6:14.06 | 75558 | 103613
5 | 23:01.39 | 4:03.60 | 103614 | 121898
6 | 27:05.24 | 3:25.59 | 121899 | 137332
7 | 30:31.08 | 4:48.32 | 137333 | 158964
8 | 35:19.40 | 5:48.62 | 158965 | 185126
9 | 41:08.27 | 2:15.01 | 185127 | 195252
10 | 43:23.28 | 4:28.21 | 195253 | 215373
11 | 47:51.49 | 4:46.60 | 215374 | 236883
Характеристики диапазона извлечения и сообщения об ошибках
Выбранный диапазон
Имя файла C:\Users\Роман\Documents\Oz Fritz - All Around The World.wav
Пиковый уровень 100.0 %
Качество диапазона 100.0 %
CRC копии 8CE831BB
Копирование... OK
Ошибок не произошло
AccurateRip: сводка
Трек 1 точность не определена (достоверность 1) [4AEF90C4], AccurateRip вернул [1F8A2524]
Трек 2 точность не определена (достоверность 1) [8BBD8C01], AccurateRip вернул [23815D7D]
Трек 3 точность не определена (достоверность 1) [3978DEEC], AccurateRip вернул [04F3CD8A]
Трек 4 точность не определена (достоверность 1) [2ECBC8B5], AccurateRip вернул [466EA897]
Трек 5 точность не определена (достоверность 1) [510A314D], AccurateRip вернул [E11F1090]
Трек 6 точность не определена (достоверность 1) [805BFAB5], AccurateRip вернул [FD4A0B82]
Трек 7 точность не определена (достоверность 1) [191D9C18], AccurateRip вернул [C57485A1]
Трек 8 точность не определена (достоверность 1) [F917CE7F], AccurateRip вернул [C5D2307C]
Трек 9 точность не определена (достоверность 1) [3C9C64F1], AccurateRip вернул [F56E9A2D]
Трек 10 точность не определена (достоверность 1) [0C9A269D], AccurateRip вернул [1D268FCF]
Трек 11 точность не определена (достоверность 1) [858AF659], AccurateRip вернул [837BF364]
Ни один трек не прошёл проверки на точность
В вашей базе может быть иной вариант штамповки диска
Конец отчёта
04:20
292
Нет комментариев. Ваш будет первым!