Поиск

(Modern Creative / Ethnic Jazz) Matthias Frey - Liquid Crystal - 2004, WAVPack (image+.cue), lossless

Треклист:
Matthias Frey - Liquid Crystal
Жанр: Modern Creative / Ethnic Jazz
Год выпуска диска: 2004
Производитель диска: InAkustik INAK 9026 CD
Аудио кодек: WAVPack
Тип рипа: image+.cue
Битрейт аудио: lossless
Продолжительность: 0:52:11
Трэклист:
01. Kasba-Brasil (5:49)
02. Steppin On Glann-Road (4:16)
03. Try It Again (6:35)
04. The Bare Necessities (3:51)
05. Circles In Water (5:47)
06. Caravan Of Dreams (5:58)
07. Point Of View (5:16)
08. Secret Flowing (7:28)
09. Short Story (2:05)
10. Bolero Connemara (5:06)
Matthias Frey - grand piano
Christoph Haberer - drums
Wolfgang Tiepold - cello
Büdi Siebert - sax, flute
Ramesh Shotham - percussion
За рип спасибо Гордому
 
EAC Log
Exact Audio Copy V0.99 prebeta 5 from 4. May 2009
EAC extraction logfile from 12. February 2010, 8:24
Matthias Frey / Liquid Chrystal
Used drive : HL-DT-STDVD-RAM GH22LP20 Adapter: 4 ID: 1
Read mode : Secure
Utilize accurate stream : Yes
Defeat audio cache : Yes
Make use of C2 pointers : No
Read offset correction : 102
Overread into Lead-In and Lead-Out : No
Fill up missing offset samples with silence : Yes
Delete leading and trailing silent blocks : No
Null samples used in CRC calculations : Yes
Used interface : Installed external ASPI interface
Used output format : Internal WAV Routines
Sample format : 44.100 Hz; 16 Bit; Stereo
TOC of the extracted CD
Track | Start | Length | Start sector | End sector
---------------------------------------------------------
1 | 0:00.00 | 5:48.40 | 0 | 26139
2 | 5:48.40 | 4:16.00 | 26140 | 45339
3 | 10:04.40 | 6:35.12 | 45340 | 74976
4 | 16:39.52 | 3:51.08 | 74977 | 92309
5 | 20:30.60 | 5:47.22 | 92310 | 118356
6 | 26:18.07 | 5:57.43 | 118357 | 145174
7 | 32:15.50 | 5:15.67 | 145175 | 168866
8 | 37:31.42 | 7:28.15 | 168867 | 202481
9 | 44:59.57 | 2:05.35 | 202482 | 211891
10 | 47:05.17 | 5:05.58 | 211892 | 234824
Range status and errors
Selected range
Filename X:\Releases RAW\Matthias Frey - Liquid Chrystal\Matthias Frey - Liquid Chrystal.wav
Peak level 92.4 %
Range quality 100.0 %
Test CRC 6AFCFC16
Copy CRC 6AFCFC16
Copy OK
No errors occurred
AccurateRip summary
Track 1 cannot be verified as accurate (confidence 1) [168D624B], AccurateRip returned [2B5F4C37]
Track 2 cannot be verified as accurate (confidence 1) [CCEF3296], AccurateRip returned [BF784984]
Track 3 cannot be verified as accurate (confidence 1) [0C5BA2F6], AccurateRip returned [32F9DE65]
Track 4 cannot be verified as accurate (confidence 1) [97D1715C], AccurateRip returned [546D2096]
Track 5 cannot be verified as accurate (confidence 1) [AFB814F3], AccurateRip returned [B3CF20C0]
Track 6 cannot be verified as accurate (confidence 1) [5E5E3DB3], AccurateRip returned [C6369CFF]
Track 7 cannot be verified as accurate (confidence 1) [1FCF60DC], AccurateRip returned [31AF0BCD]
Track 8 cannot be verified as accurate (confidence 1) [57724723], AccurateRip returned [2D79AB7B]
Track 9 cannot be verified as accurate (confidence 1) [6F56156C], AccurateRip returned [176AAFE5]
Track 10 cannot be verified as accurate (confidence 1) [790888FC], AccurateRip returned [A4614A5A]
No tracks could be verified as accurate
You may have a different pressing from the one(s) in the database
End of status report
15:43
269
Нет комментариев. Ваш будет первым!