Поиск

(Modern Creative / Ethnic Jazz) Matthias Frey & Wolfgang Tiepold - Inversion - 1983, WAVPack (image+.cue), lossless

Треклист:
Matthias Frey & Wolfgang Tiepold - Inversion
Жанр: Modern Creative / Ethnic Jazz
Год выпуска диска: 1983
Производитель диска: Rillenwerke
Аудио кодек: WAVPack
Тип рипа: image+.cue
Битрейт аудио: lossless
Продолжительность: 0:40:21
Трэклист:
01. Sceptic's Dream (8:11)
02. Flamingo-Menuett (5:40)
03. Aus Dem Schatten (7:24)
04. Circus (6:52)
05. Aysha (7:40)
06. Inversion (4:33)
Matthias Frey - piano, keyboard
Wolfgang Tiepold - cello
Trilok Gurtu - percussion
За рип спасибо Гордому
.
.
.
 
EAC Log
Exact Audio Copy V0.99 prebeta 5 from 4. May 2009
EAC extraction logfile from 12. April 2010, 19:27
Frey & Tiepold / Inversion
Used drive : HL-DT-STDVD-RAM GH22LP20 Adapter: 4 ID: 1
Read mode : Secure
Utilize accurate stream : Yes
Defeat audio cache : Yes
Make use of C2 pointers : No
Read offset correction : 102
Overread into Lead-In and Lead-Out : No
Fill up missing offset samples with silence : Yes
Delete leading and trailing silent blocks : No
Null samples used in CRC calculations : Yes
Used interface : Installed external ASPI interface
Used output format : User Defined Encoder
Selected bitrate : 896 kBit/s
Quality : High
Add ID3 tag : No
Command line compressor : C:\Program Files (x86)\Exact Audio Copy\WAV Pack\wavpack.exe
Additional command line options : -hlmx2 %s
TOC of the extracted CD
Track | Start | Length | Start sector | End sector
---------------------------------------------------------
1 | 0:00.00 | 8:11.13 | 0 | 36837
2 | 8:11.13 | 5:40.24 | 36838 | 62361
3 | 13:51.37 | 7:23.67 | 62362 | 95653
4 | 21:15.29 | 6:51.66 | 95654 | 126544
5 | 28:07.20 | 7:40.34 | 126545 | 161078
6 | 35:47.54 | 4:32.62 | 161079 | 181540
Range status and errors
Selected range
Filename X:\Releases RAW\Frey & Tiepold - Inversion\Frey & Tiepold - Inversion.wav
Peak level 100.0 %
Range quality 100.0 %
Test CRC 9DA2D347
Copy CRC 9DA2D347
Copy OK
No errors occurred
AccurateRip summary
Track 1 not present in database
Track 2 not present in database
Track 3 not present in database
Track 4 not present in database
Track 5 not present in database
Track 6 not present in database
None of the tracks are present in the AccurateRip database
End of status report
15:45
236
Нет комментариев. Ваш будет первым!