Поиск

(Modern Creative, e2e) Vassilis Tsabropoulos - Akroasis - 2003, APE (image + .cue), lossless

Треклист:
Vassilis Tsabropoulos - Akroasis
Страна: Germany
Жанр: Jazz
Год выпуска: 2003
Формат: APE (image + .cue)
Битрейт аудио: lossless
Продолжительность: 44:39
Трэклист:
1. Hymn I (Axion Esti)
2. Hymn II (Zoi En Tafo)
3. Hymn III (Ek Nyktos)
4. Secret Garden
5. Hymn IV (Nymphios)
6. Interlude
7. Hymn V (Anastasis)
8. Prayer
Доп. информация:
Vassilis Tsabropoulos: piano
Label: ECM
Artwork
 
EAC log
Exact Audio Copy V0.99 prebeta 4 from 23. January 2008
EAC extraction logfile from 18. April 2008, 8:39
Vassilis Tsabropoulos / Akroasis
Used drive : PIONEER DVD-RW DVR-109 Adapter: 1 ID: 0
Read mode : Secure
Utilize accurate stream : Yes
Defeat audio cache : Yes
Make use of C2 pointers : No
Read offset correction : 48
Overread into Lead-In and Lead-Out : No
Fill up missing offset samples with silence : Yes
Delete leading and trailing silent blocks : No
Null samples used in CRC calculations : Yes
Used interface : Native Win32 interface for Win NT & 2000
Used output format : Monkey's Audio Lossless Encoder v3.99 DLL
Sample format : Normal Lossless Compression
TOC of the extracted CD
Track | Start | Length | Start sector | End sector
---------------------------------------------------------
1 | 0:00.00 | 5:01.57 | 0 | 22631
2 | 5:01.57 | 4:59.15 | 22632 | 45071
3 | 10:00.72 | 8:52.73 | 45072 | 85044
4 | 18:53.70 | 5:57.22 | 85045 | 111841
5 | 24:51.17 | 7:23.43 | 111842 | 145109
6 | 32:14.60 | 4:28.65 | 145110 | 165274
7 | 36:43.50 | 3:17.12 | 165275 | 180061
8 | 40:00.62 | 4:38.03 | 180062 | 200914
Range status and errors
Selected range
Filename D:\Torrent\Vassilis Tsabropoulos - Akroasis (2003)\Vassilis Tsabropoulos - Akroasis.ape
Peak level 91.2 %
Range quality 100.0 %
Copy CRC 43044F37
Copy OK
No errors occurred
AccurateRip summary
Track 1 accurately ripped (confidence 1) [7A2AD023]
Track 2 cannot be verified as accurate (confidence 1) [D65AC34B], AccurateRip returned [7BD40A0F]
Track 3 accurately ripped (confidence 1) [BDC1ACA4]
Track 4 accurately ripped (confidence 1) [E56564A0]
Track 5 accurately ripped (confidence 1) [ABEA8E58]
Track 6 accurately ripped (confidence 1) [EBE723FF]
Track 7 accurately ripped (confidence 1) [7BCE8A6B]
Track 8 accurately ripped (confidence 1) [B5C217A6]
7 track(s) accurately ripped
1 track(s) could not be verified as accurate
Some tracks could not be verified as accurate
End of status report
Приватный:
Нет (DHT включён)
Размер:
127.94 Мб (134,149,895 байт) » файлов: 9
Участники:
0 раздают, 0 качают (0 участников всего)
Внешние участники:
2 раздают, 1 качают (3 участников всего) [ Обновить ]
No seeders - write personal message to user M0p94ok. Нет сидеров - пишите личное сообщение пользователю M0p94ok.
00:31
51
Нет комментариев. Ваш будет первым!