Поиск

(Modern Creative, Contemporary Jazz) Steve Coleman & Five Elements - Resistance Is Futile (2CD) - 2001, FLAC (tracks+.cue) lossless

Треклист:
Steve Coleman & Five Elements / Resistance Is Futile (2CD)
Жанр: Modern Creative, Contemporary Jazz
Страна-производитель диска: France
Год издания диска: 2001
Издатель (лейбл): Label Bleu
Номер по каталогу: LBLC 6643/4
Страна: US
Аудио кодек: FLAC (*.flac)
Тип рипа: tracks+.cue
Битрейт аудио: lossless
Продолжительность: 135:03
Источник (релизер): Demonoid
Наличие сканов в содержимом раздачи: да
Треклист:
SET 1: Abundance (Fullness)
1. Wheel Of Nature 18:54
2. Beyond All We Know 6:05
3. 9 To 5 14:42
4. Change The Guard 8:57
5. Ah-Leu-Cha 5:28
6. Law Of Balance / Figit Time 13:49
SET 2: The Wanderer
1. Resistance Is Futile (Limitation) 15:14
2. Hits / Straight No Chaser 6:10
3. Easy Living 7:07
4. Urban 7:37
5. Flint 12:15
6. Pad Thai 2:55
7. Straight Ahead 5:46
8. Reflex 5:59
 
Лог создания рипа

 
Disc 1
Exact Audio Copy V0.99 prebeta 5 from 4. May 2009
EAC extraction logfile from 2. December 2010, 23:17
Steve Coleman and Five Elements / Resistance Is Futile Set 1
Used drive : HL-DT-STDVDRAM GSA-H10N Adapter: 2 ID: 0
Read mode : Secure
Utilize accurate stream : Yes
Defeat audio cache : Yes
Make use of C2 pointers : No
Read offset correction : 667
Overread into Lead-In and Lead-Out : No
Fill up missing offset samples with silence : Yes
Delete leading and trailing silent blocks : No
Null samples used in CRC calculations : Yes
Used interface : Native Win32 interface for Win NT & 2000
Gap handling : Appended to previous track
Used output format : User Defined Encoder
Selected bitrate : 1024 kBit/s
Quality : High
Add ID3 tag : No
Command line compressor : C:\Program files (x86)\Exact Audio Copy\Flac\flac.exe
Additional command line options : -8 -V -T "ARTIST=%a" -T "TITLE=%t" -T "ALBUM=%g" -T "DATE=%y" -T "TRACKNUMBER=%n" -T "TOTALTRACKS=%x" -T "GENRE=%m" -T "ALBUMARTIST=%v" -T "ALBUM ARTIST=%v" -T "COMMENT=EAC Secure Mode, Test & Copy, AccurateRip, FLAC -8" %s
TOC of the extracted CD
Track | Start | Length | Start sector | End sector
---------------------------------------------------------
1 | 0:00.00 | 18:54.32 | 0 | 85081
2 | 18:54.32 | 6:04.68 | 85082 | 112449
3 | 24:59.25 | 14:42.00 | 112450 | 178599
4 | 39:41.25 | 8:57.37 | 178600 | 218911
5 | 48:38.62 | 5:28.38 | 218912 | 243549
6 | 54:07.25 | 13:48.65 | 243550 | 305714
Track 1
Filename E:\#[EAC]-Rips\01. Wheel of nature.wav
Pre-gap length 0:00:02.00
Peak level 97.3 %
Track quality 100.0 %
Test CRC 1D284EEE
Copy CRC 1D284EEE
Accurately ripped (confidence 10) [651A09CD]
Copy OK
Track 2
Filename E:\#[EAC]-Rips\02. Beyond all we know.wav
Peak level 64.2 %
Track quality 99.9 %
Test CRC 690B2FB0
Copy CRC 690B2FB0
Accurately ripped (confidence 10) [013CB27C]
Copy OK
Track 3
Filename E:\#[EAC]-Rips\03. 9 to 5.wav
Peak level 96.6 %
Track quality 100.0 %
Test CRC 4CBAD8F1
Copy CRC 4CBAD8F1
Accurately ripped (confidence 9) [564BC208]
Copy OK
Track 4
Filename E:\#[EAC]-Rips\04. Change the guard.wav
Peak level 94.7 %
Track quality 100.0 %
Test CRC 92C02935
Copy CRC 92C02935
Accurately ripped (confidence 10) [3F0B34B6]
Copy OK
Track 5
Filename E:\#[EAC]-Rips\05. Ah-Leu-Cha.wav
Peak level 85.2 %
Track quality 100.0 %
Test CRC BD286234
Copy CRC BD286234
Accurately ripped (confidence 10) [85B49B1D]
Copy OK
Track 6
Filename E:\#[EAC]-Rips\06. Law of balance,Figit time.wav
Peak level 98.8 %
Track quality 99.9 %
Test CRC 3433D81E
Copy CRC 3433D81E
Accurately ripped (confidence 11) [7BDE602E]
Copy OK
All tracks accurately ripped
No errors occurred
End of status report
 
Disc 2
Exact Audio Copy V0.99 prebeta 5 from 4. May 2009
EAC extraction logfile from 3. December 2010, 23:45
Steve Coleman and Five Elements / Resistance Is Futile Set 2
Used drive : HL-DT-STDVDRAM GSA-H10N Adapter: 2 ID: 0
Read mode : Secure
Utilize accurate stream : Yes
Defeat audio cache : Yes
Make use of C2 pointers : No
Read offset correction : 667
Overread into Lead-In and Lead-Out : No
Fill up missing offset samples with silence : Yes
Delete leading and trailing silent blocks : No
Null samples used in CRC calculations : Yes
Used interface : Native Win32 interface for Win NT & 2000
Gap handling : Appended to previous track
Used output format : User Defined Encoder
Selected bitrate : 1024 kBit/s
Quality : High
Add ID3 tag : No
Command line compressor : C:\Program files (x86)\Exact Audio Copy\Flac\flac.exe
Additional command line options : -8 -V -T "ARTIST=%a" -T "TITLE=%t" -T "ALBUM=%g" -T "DATE=%y" -T "TRACKNUMBER=%n" -T "TOTALTRACKS=%x" -T "GENRE=%m" -T "ALBUMARTIST=%v" -T "ALBUM ARTIST=%v" -T "COMMENT=EAC Secure Mode, Test & Copy, AccurateRip, FLAC -8" %s
TOC of the extracted CD
Track | Start | Length | Start sector | End sector
---------------------------------------------------------
1 | 0:00.00 | 15:14.62 | 0 | 68611
2 | 15:14.62 | 6:10.00 | 68612 | 96361
3 | 21:24.62 | 7:07.00 | 96362 | 128386
4 | 28:31.62 | 7:37.23 | 128387 | 162684
5 | 36:09.10 | 12:15.25 | 162685 | 217834
6 | 48:24.35 | 2:55.27 | 217835 | 230986
7 | 51:19.62 | 5:46.38 | 230987 | 256974
8 | 57:06.25 | 10:01.15 | 256975 | 302064
9 | 67:07.40 | 0:08.00 | 302065 | 302664
Track 1
Filename E:\#[EAC]-Rips\01. Resistance is futile (limitation).wav
Pre-gap length 0:00:02.00
Peak level 99.9 %
Track quality 99.9 %
Test CRC 99029EA2
Copy CRC 99029EA2
Accurately ripped (confidence 11) [D0376A0A]
Copy OK
Track 2
Filename E:\#[EAC]-Rips\02. Hits,Straight no chaser.wav
Peak level 89.1 %
Track quality 100.0 %
Test CRC 3CA7F14B
Copy CRC 3CA7F14B
Accurately ripped (confidence 11) [5C557161]
Copy OK
Track 3
Filename E:\#[EAC]-Rips\03. Easy living.wav
Peak level 68.6 %
Track quality 99.9 %
Test CRC FF3A6F43
Copy CRC FF3A6F43
Accurately ripped (confidence 11) [DAA4E4AA]
Copy OK
Track 4
Filename E:\#[EAC]-Rips\04. Urban.wav
Peak level 96.0 %
Track quality 100.0 %
Test CRC 1470A59A
Copy CRC 1470A59A
Accurately ripped (confidence 11) [7417448B]
Copy OK
Track 5
Filename E:\#[EAC]-Rips\05. Flint.wav
Peak level 96.4 %
Track quality 100.0 %
Test CRC 4C7F5A56
Copy CRC 4C7F5A56
Accurately ripped (confidence 11) [1C5541CC]
Copy OK
Track 6
Filename E:\#[EAC]-Rips\06. Pad Thai.wav
Peak level 89.8 %
Track quality 100.0 %
Test CRC AAB3B244
Copy CRC AAB3B244
Accurately ripped (confidence 11) [6823AB62]
Copy OK
Track 7
Filename E:\#[EAC]-Rips\07. Straight ahead.wav
Peak level 72.4 %
Track quality 100.0 %
Test CRC CF355D1E
Copy CRC CF355D1E
Accurately ripped (confidence 11) [413290A7]
Copy OK
Track 8
Filename E:\#[EAC]-Rips\08. Reflex.wav
Peak level 97.6 %
Track quality 99.8 %
Test CRC BFC49597
Copy CRC BFC49597
Accurately ripped (confidence 10) [8E13754F]
Copy OK
Track 9
Filename E:\#[EAC]-Rips\09. [Untitled Hidden Track].wav
Pre-gap length 0:04:01.63
Peak level 0.0 %
Track quality 98.6 %
Test CRC 96DDFABE
Copy CRC 96DDFABE
Track not present in AccurateRip database
Copy OK
8 track(s) accurately ripped
1 track(s) not present in the AccurateRip database
Some tracks could not be verified as accurate
No errors occurred
End of status report
 
Содержание индексной карты (.CUE)

 
Disc 1
REM GENRE Jazz
REM DATE 2001
REM DISCID 430FEC06
REM COMMENT "ExactAudioCopy v0.99pb5"
CATALOG 0794881664320
PERFORMER "Steve Coleman and Five Elements"
TITLE "Resistance Is Futile Set 1"
FILE "01. Wheel of nature.wav" WAVE
TRACK 01 AUDIO
TITLE "Wheel of nature"
PERFORMER "Steve Coleman and Five Elements"
ISRC FR1F30100220
INDEX 01 00:00:00
FILE "02. Beyond all we know.wav" WAVE
TRACK 02 AUDIO
TITLE "Beyond all we know"
PERFORMER "Steve Coleman and Five Elements"
ISRC FR1F30100240
INDEX 01 00:00:00
FILE "03. 9 to 5.wav" WAVE
TRACK 03 AUDIO
TITLE "9 to 5"
PERFORMER "Steve Coleman and Five Elements"
ISRC FR1F30100230
INDEX 01 00:00:00
FILE "04. Change the guard.wav" WAVE
TRACK 04 AUDIO
TITLE "Change the guard"
PERFORMER "Steve Coleman and Five Elements"
ISRC FR1F30100290
INDEX 01 00:00:00
FILE "05. Ah-Leu-Cha.wav" WAVE
TRACK 05 AUDIO
TITLE "Ah-Leu-Cha"
PERFORMER "Steve Coleman and Five Elements"
ISRC FR1F30100330
INDEX 01 00:00:00
FILE "06. Law of balance,Figit time.wav" WAVE
TRACK 06 AUDIO
TITLE "Law of balance/Figit time"
PERFORMER "Steve Coleman and Five Elements"
ISRC FR1F30100310
INDEX 01 00:00:00
 
Disc 2
REM GENRE Jazz
REM DATE 2001
REM DISCID 770FC309
REM COMMENT "ExactAudioCopy v0.99pb5"
CATALOG 0794881664320
PERFORMER "Steve Coleman and Five Elements"
TITLE "Resistance Is Futile Set 2"
FILE "01. Resistance is futile (limitation).wav" WAVE
TRACK 01 AUDIO
TITLE "Resistance is futile (limitation)"
PERFORMER "Steve Coleman and Five Elements"
ISRC FR1F30100280
INDEX 01 00:00:00
FILE "02. Hits,Straight no chaser.wav" WAVE
TRACK 02 AUDIO
TITLE "Hits/Straight no chaser"
PERFORMER "Steve Coleman and Five Elements"
ISRC FR1F30100340
INDEX 01 00:00:00
FILE "03. Easy living.wav" WAVE
TRACK 03 AUDIO
TITLE "Easy living"
PERFORMER "Steve Coleman and Five Elements"
ISRC FR1F30100250
INDEX 01 00:00:00
FILE "04. Urban.wav" WAVE
TRACK 04 AUDIO
TITLE "Urban"
PERFORMER "Steve Coleman and Five Elements"
ISRC FR1F30100350
INDEX 01 00:00:00
FILE "05. Flint.wav" WAVE
TRACK 05 AUDIO
TITLE "Flint"
PERFORMER "Steve Coleman and Five Elements"
ISRC FR1F30100260
INDEX 01 00:00:00
FILE "06. Pad Thai.wav" WAVE
TRACK 06 AUDIO
TITLE "Pad Thai"
PERFORMER "Steve Coleman and Five Elements"
ISRC FR1F30100360
INDEX 01 00:00:00
FILE "07. Straight ahead.wav" WAVE
TRACK 07 AUDIO
TITLE "Straight ahead"
PERFORMER "Steve Coleman and Five Elements"
ISRC FR1F30100300
INDEX 01 00:00:00
FILE "08. Reflex.wav" WAVE
TRACK 08 AUDIO
TITLE "Reflex"
PERFORMER "Steve Coleman and Five Elements"
ISRC FR1F30100270
INDEX 01 00:00:00
TRACK 09 AUDIO
TITLE "[Untitled Hidden Track]"
PERFORMER "Steve Coleman and Five Elements"
ISRC FR1F30100320
INDEX 00 05:59:27
FILE "09. [Untitled Hidden Track].wav" WAVE
INDEX 01 00:00:00
 
Лог проверки качества
d:\>d:\aucdtect -d/-m0 d:\zzz\*.wav
auCDtect: CD records authenticity detector, version 0.8.2
Copyright (c) 2004 Oleg Berngardt. All rights reserved.
Copyright (c) 2004 Alexander Djourik. All rights reserved.
------------------------------------------------------------
Processing file: [01. Resistance is futile (limitation).wav]
------------------------------------------------------------
This track looks like CDDA with probability 100%
------------------------------------------------------------
Processing file: [01. Wheel of nature.wav]
------------------------------------------------------------
This track looks like CDDA with probability 100%
------------------------------------------------------------
Processing file: [02. Beyond all we know.wav]
------------------------------------------------------------
This track looks like CDDA with probability 100%
------------------------------------------------------------
Processing file: [02. Hits_Straight no chaser.wav]
------------------------------------------------------------
This track looks like CDDA with probability 100%
------------------------------------------------------------
Processing file: [03. 9 to 5.wav]
------------------------------------------------------------
This track looks like CDDA with probability 100%
------------------------------------------------------------
Processing file: [03. Easy living.wav]
------------------------------------------------------------
This track looks like CDDA with probability 100%
------------------------------------------------------------
Processing file: [04. Change the guard.wav]
------------------------------------------------------------
This track looks like CDDA with probability 100%
------------------------------------------------------------
Processing file: [04. Urban.wav]
------------------------------------------------------------
This track looks like CDDA with probability 100%
------------------------------------------------------------
Processing file: [05. Ah-Leu-Cha.wav]
------------------------------------------------------------
This track looks like CDDA with probability 100%
------------------------------------------------------------
Processing file: [05. Flint.wav]
------------------------------------------------------------
This track looks like CDDA with probability 99%
------------------------------------------------------------
Processing file: [06. Law of balance_Figit time.wav]
------------------------------------------------------------
This track looks like CDDA with probability 100%
------------------------------------------------------------
Processing file: [06. Pad Thai.wav]
------------------------------------------------------------
This track looks like CDDA with probability 100%
------------------------------------------------------------
Processing file: [07. Straight ahead.wav]
------------------------------------------------------------
This track looks like CDDA with probability 100%
------------------------------------------------------------
Processing file: [08. Reflex.wav]
------------------------------------------------------------
This track looks like CDDA with probability 100%
------------------------------------------------------------
Final Conclusion:
------------------------------------------------------------
These tracks looks like CDDA with probability 100%
 
Скриншот спектра частот
 
Состав
Steve Coleman: alto saxophone, vocals
Jonathan Finlayson: trumpet
Ambrose Campbell-Akinmusire: trumpet
Andy Milne: piano, keyboards
Anthony Tidd: bass
Jesus Diaz: percussion, vocals
Sean Rickman: drums
Geoffroy De Masure: trombone (guest)
22:50
420
Нет комментариев. Ваш будет первым!