Поиск

(Modern Creative, Contemporary Jazz) [CD] Barney McAll (feat. Liberty Ellman, Josh Roseman, Billy Harper, Kurt Rosenwinkel) - Mother Of Dreams And Secrets - 2005, FLAC (tracks+.cue), lossless

(Modern Creative, Contemporary Jazz) [CD] Barney McAll (feat. Liberty Ellman, Josh Roseman, Billy Harper, Kurt Rosenwinkel) - Mother Of Dreams And Secrets - 2005, FLAC (tracks+.cue), lossless
Треклист:
Barney McAll / Mother Of Dreams And Secrets
Жанр: Modern Creative, Contemporary Jazz
Носитель: CD
Страна-производитель диска: Australia
Год издания: 2005
Издатель (лейбл): Jazzhead Records
Номер по каталогу: HEAD066
Страна исполнителя (группы): Australia
Аудиокодек: FLAC (*.flac)
Тип рипа: tracks+.cue
Битрейт аудио: lossless
Продолжительность: 68:33
Источник (релизер): свой фирменный диск
Наличие сканов в содержимом раздачи:
Треклист:
1. Ellegua 7:18
2. Mysteriss 8:17
3. Yemaya One 7:52
4. Queen Of Witches 9:49
5. Heavenly Waters 7:39
6. Yemaya Prayer 2:33
7. Aguas Cristalinas 7:46
8. Venus As A Boy 6:17
9. Abeokuta Suite 10:57
 
Лог создания рипа
Exact Audio Copy V1.0 beta 3 from 29. August 2011
EAC extraction logfile from 10. August 2014, 18:44
Barney McAll / Mother Of Dreams And Secrets
Used drive : PIONEER DVD-RW DVR-115D Adapter: 0 ID: 0
Read mode : Secure
Utilize accurate stream : Yes
Defeat audio cache : Yes
Make use of C2 pointers : No
Read offset correction : 48
Overread into Lead-In and Lead-Out : No
Fill up missing offset samples with silence : Yes
Delete leading and trailing silent blocks : No
Null samples used in CRC calculations : Yes
Used interface : Installed external ASPI interface
Gap handling : Appended to previous track
Used output format : User Defined Encoder
Selected bitrate : 896 kBit/s
Quality : High
Add ID3 tag : No
Command line compressor : C:\Program Files\Exact Audio Copy\FLAC\FLAC.EXE
Additional command line options : -6 -V -T "ARTIST=%artist%" -T "TITLE=%title%" -T "ALBUM=%albumtitle%" -T "DATE=%year%" -T "TRACKNUMBER=%tracknr%" -T "GENRE=%genre%" -T "COMMENT=%comment%" -T "BAND=%albuminterpret%" -T "COMPOSER=%composer%" %haslyrics%--tag-from-file=LYRICS="%lyricsfile%"%haslyrics% -T "DISCNUMBER=%cdnumber%" -T "TOTALDISCS=%totalcds%" -T "TOTALTRACKS=%numtracks%" %hascover%--picture="%coverfile%"%hascover% %source% -o %dest%
TOC of the extracted CD
Track | Start | Length | Start sector | End sector
---------------------------------------------------------
1 | 0:00.00 | 7:18.53 | 0 | 32902
2 | 7:18.53 | 8:17.50 | 32903 | 70227
3 | 15:36.28 | 7:52.42 | 70228 | 105669
4 | 23:28.70 | 9:49.32 | 105670 | 149876
5 | 33:18.27 | 7:39.40 | 149877 | 184341
6 | 40:57.67 | 2:33.69 | 184342 | 195885
7 | 43:31.61 | 7:46.18 | 195886 | 230853
8 | 51:18.04 | 6:17.41 | 230854 | 259169
9 | 57:35.45 | 10:57.06 | 259170 | 308450
Track 1
Filename D:\zzz\01 - Ellegua.wav
Pre-gap length 0:00:02.00
Peak level 98.9 %
Extraction speed 5.1 X
Track quality 100.0 %
Test CRC 27B8E327
Copy CRC 27B8E327
Accurately ripped (confidence 1) [A490EF82] (AR v2)
Copy OK
Track 2
Filename D:\zzz\02 - Mysteriss.wav
Pre-gap length 0:00:00.14
Peak level 98.8 %
Extraction speed 5.7 X
Track quality 99.9 %
Test CRC 28D562E2
Copy CRC 28D562E2
Accurately ripped (confidence 1) [B864F2D1] (AR v2)
Copy OK
Track 3
Filename D:\zzz\03 - Yemaya One.wav
Pre-gap length 0:00:03.08
Peak level 98.9 %
Extraction speed 6.8 X
Track quality 100.0 %
Test CRC 0DDDC895
Copy CRC 0DDDC895
Accurately ripped (confidence 1) [51C83FF5] (AR v2)
Copy OK
Track 4
Filename D:\zzz\04 - Queen Of Witches.wav
Pre-gap length 0:00:02.00
Peak level 98.8 %
Extraction speed 7.5 X
Track quality 100.0 %
Test CRC EC18A54A
Copy CRC EC18A54A
Accurately ripped (confidence 1) [CF48EF1D] (AR v2)
Copy OK
Track 5
Filename D:\zzz\05 - Heavenly Waters.wav
Pre-gap length 0:00:04.54
Peak level 98.9 %
Extraction speed 8.0 X
Track quality 100.0 %
Test CRC 3E0B1D1A
Copy CRC 3E0B1D1A
Accurately ripped (confidence 1) [2A09757E] (AR v2)
Copy OK
Track 6
Filename D:\zzz\06 - Yemaya Prayer.wav
Peak level 98.8 %
Extraction speed 7.2 X
Track quality 100.0 %
Test CRC 4725F09B
Copy CRC 4725F09B
Accurately ripped (confidence 1) [B44710AF] (AR v2)
Copy OK
Track 7
Filename D:\zzz\07 - Aguas Cristalinas.wav
Pre-gap length 0:00:02.00
Peak level 98.9 %
Extraction speed 8.6 X
Track quality 100.0 %
Test CRC 406F9313
Copy CRC 406F9313
Accurately ripped (confidence 1) [9589B041] (AR v2)
Copy OK
Track 8
Filename D:\zzz\08 - Venus As A Boy.wav
Pre-gap length 0:00:02.00
Peak level 98.8 %
Extraction speed 8.9 X
Track quality 100.0 %
Test CRC 08D4B5CD
Copy CRC 08D4B5CD
Accurately ripped (confidence 1) [D0FA468E] (AR v2)
Copy OK
Track 9
Filename D:\zzz\09 - Abeokuta Suite.wav
Peak level 100.0 %
Extraction speed 9.6 X
Track quality 100.0 %
Test CRC A91B7CA9
Copy CRC A91B7CA9
Accurately ripped (confidence 1) [FBFD2851] (AR v2)
Copy OK
All tracks accurately ripped
No errors occurred
End of status report
==== Log checksum 6626183F910244C85AEF6D5A59F096B9D6FE10476A08487ABCD78E71E40426F1 ====
 
Содержание индексной карты (.CUE)
REM GENRE "Latin Jazz"
REM DATE 2005
REM DISCID 64101009
REM COMMENT "ExactAudioCopy v1.0b3"
PERFORMER "Barney McAll"
TITLE "Mother Of Dreams And Secrets"
FILE "01 - Ellegua.wav" WAVE
TRACK 01 AUDIO
TITLE "Ellegua"
PERFORMER "Barney McAll"
INDEX 01 00:00:00
TRACK 02 AUDIO
TITLE "Mysteriss"
PERFORMER "Barney McAll"
INDEX 00 07:18:39
FILE "02 - Mysteriss.wav" WAVE
INDEX 01 00:00:00
TRACK 03 AUDIO
TITLE "Yemaya One"
PERFORMER "Barney McAll"
INDEX 00 08:14:42
FILE "03 - Yemaya One.wav" WAVE
INDEX 01 00:00:00
TRACK 04 AUDIO
TITLE "Queen Of Witches"
PERFORMER "Barney McAll"
INDEX 00 07:50:42
FILE "04 - Queen Of Witches.wav" WAVE
INDEX 01 00:00:00
TRACK 05 AUDIO
TITLE "Heavenly Waters"
PERFORMER "Barney McAll"
INDEX 00 09:44:53
FILE "05 - Heavenly Waters.wav" WAVE
INDEX 01 00:00:00
FILE "06 - Yemaya Prayer.wav" WAVE
TRACK 06 AUDIO
TITLE "Yemaya Prayer"
PERFORMER "Barney McAll"
INDEX 01 00:00:00
TRACK 07 AUDIO
TITLE "Aguas Cristalinas"
PERFORMER "Barney McAll"
INDEX 00 02:31:69
FILE "07 - Aguas Cristalinas.wav" WAVE
INDEX 01 00:00:00
TRACK 08 AUDIO
TITLE "Venus As A Boy"
PERFORMER "Barney McAll"
INDEX 00 07:44:18
FILE "08 - Venus As A Boy.wav" WAVE
INDEX 01 00:00:00
FILE "09 - Abeokuta Suite.wav" WAVE
TRACK 09 AUDIO
TITLE "Abeokuta Suite"
PERFORMER "Barney McAll"
INDEX 01 00:00:00
 
Лог проверки качества
d:\>d:\aucdtect -d/-m0 d:\zzz\*.wav
auCDtect: CD records authenticity detector, version 0.8.2
Copyright (c) 2004 Oleg Berngardt. All rights reserved.
Copyright (c) 2004 Alexander Djourik. All rights reserved.
------------------------------------------------------------
Processing file: [01. Ellegua.wav]
------------------------------------------------------------
This track looks like CDDA with probability 100%
------------------------------------------------------------
Processing file: [02. Mysteriss.wav]
------------------------------------------------------------
This track looks like CDDA with probability 100%
------------------------------------------------------------
Processing file: [03. Yemaya One.wav]
------------------------------------------------------------
This track looks like CDDA with probability 100%
------------------------------------------------------------
Processing file: [04. Queen Of Witches.wav]
------------------------------------------------------------
This track looks like CDDA with probability 100%
------------------------------------------------------------
Processing file: [05. Heavenly Waters.wav]
------------------------------------------------------------
This track looks like CDDA with probability 100%
------------------------------------------------------------
Processing file: [06. Yemaya Prayer.wav]
------------------------------------------------------------
This track looks like CDDA with probability 100%
------------------------------------------------------------
Processing file: [07. Aguas Cristalinas.wav]
------------------------------------------------------------
This track looks like CDDA with probability 100%
------------------------------------------------------------
Processing file: [08. Venus As A Boy.wav]
------------------------------------------------------------
This track looks like CDDA with probability 100%
------------------------------------------------------------
Processing file: [09. Abeokuta Suite.wav]
------------------------------------------------------------
This track looks like CDDA with probability 100%
------------------------------------------------------------
Final Conclusion:
------------------------------------------------------------
These tracks looks like CDDA with probability 100%
Доп. информация:
 
Album Info & Review
(Folkloric/McAll) - 1
(McAll) - 2,3,4,5,7,9
(Folkloric) - 6
(Bjork) - 8
Piano, bata and rhythm tracks recorded at Egrem Studios, Havana, Cuba.
The rest recorded in various NY lounge rooms.
Mixed and mastered by Hiroyuki Sanada @ Crystal Elevator NYC
Produced by Barney McAll
Photographic portrait by B+
Design by Pete Barrett
Liner notes: Barney McAll
This music was written for and inspired by Yemaya, the Queen of all the world and is dedicated to my sister, Phillipa McAll.
"The sea is like music: it has all the dreams of the soul within itself and sounds them over" - Carl Jung
Mother of Dreams And Secrets ‘MODAS’ from one of Australia’s most inspirational jazz musicians, Barney McAll, was recorded in Cuba and New York. The music based on Afro-Cuban rhythms and is dedicated to Santerian goddess, Yemaya – the Mother of Dreams and Secrets.
Percussive but hypnotic and at times ethereal. Mother of Dreams and Secrets, is the cross-cultural musical journey of one of Australia’s most inspirational jazz musicians. From Australia to Havana and New York, the award-winning pianist and composer has combined his love of jazz and Afro-Cuban sacred rhythms to pay tribute to the Santerian goddess, Yemaya – the mother of all the world.
‘I have always felt drawn to Yemaya so I took some of the rhythms used to invoke her, slowed them down and then applied my own harmonies and melodies to each interlocking part’, explains McAll. ‘I first visited Cuba in the late 90s and experienced a Yoruba/Santerian ceremony honouring Yemaya. The music had such a profound effect on me that I may never recover!’
McAll, who has been based in New York since 1997, received an Australian Arts Council grant in 2004 which allowed him to study and compose music in Cuba. ‘While I was there I worked with a number of passionate and incredible Cuban percussionists. We recorded the rhythm tracks for Mother of Dreams and Secrets in Cuba amidst the vibrancy and energy of the Havana cityscape. ‘We did one rehearsal with Ramses (drums) out in the sun on his rooftop amidst the hustle and chaos of Havana, surrounded by washing on the clothes line and with the sound of local bands emanating from the square below. ‘Our conga player, Yaroldy, didn’t make it to a single rehearsal. He turned up four hours late to the session, stripped down to his underpants, played one song then left to go to a rehearsal with Chucho Valdez. Two hours later he returned, stripped off again and finished the session. I have never heard anyone like him before. Amazing! The Cuban players are just so full of passion and fire’ recalls Barney. ‘I took the Cuban rhythm tracks back to New York and recorded the NY and Australian players on top’ says McAll. ‘Having people like Kurt Rosenwinkel and Billy Harper relating to the Cuban musicians on tape was incredible. There is also a great Aussie contingent on the album including Jamie Oehlers who was in town for a while, Matt Clohesy (bass) and Jacam Manricks (Alto). The music unfolded exactly as I had heard it in my head. It really was an amazing experience. There were so many musical serendipities and coincidences that really helped the project come together.’
Barney McAll grew up in Melbourne and studied at the Victorian College of the Arts. He has lived in NYC since 1997 and has performed with numerous Australian and international artists including Gary Bartz, Vince Jones, Billy Harper, Jim Black, Josh Roseman, Ben Monder and Vince Herring. - mmusic.com.au
 
Состав
Barney McAll: piano, chucky (1,4,6,7,8), rhodes (7,8), bass (8)
Dreiser Durruthy: bata (1,3,5,7,9), vocals (1,6)
Ramses Rodriguez: drums (1,2,3,4,5,7,8,9)
Ernesto Simpson: percussion (1,5), timbales percussion (2,3)
Jacam Manricks: alto sax (1,2,3,7)
Jonathan Maron: electric bass (1,5,8)
Yaroldy Abreu Robles: congas (2,7,8,9)
Jay Rodriguez: flute (2), tenor sax (5,7), alto flute (7)
Jamie Ohelers: tenor sax (2,7)
Aryam Varona Hernandez: acoustic bass (2)
Liberty Ellman: guitar (3,5,9)
Josh Roseman: trombone (3,5)
Matt Clohesy: acoustic bass (3,4,7,9)
Kurt Rosenwinkel: guitar (4)
Eddie Bobe: congas (5)
Jasper Leak: electric bass (7)
Billy Harper: tenor sax (9)
Download available for power users only.
13:27
454
Нет комментариев. Ваш будет первым!