Вы используете незарегистрированную версию компонента "Вкладки"!

Поиск

(Modern Creative) Ben Allison - Action-Refraction - 2011, FLAC (tracks+.cue), lossless

(Modern Creative) Ben Allison - Action-Refraction - 2011, FLAC (tracks+.cue), lossless
Треклист:
Ben Allison / Action-Refraction Жанр: Modern Creative
Год издания диска: 2011
Аудиокодек: FLAC (*.flac)
Тип рипа: tracks+.cue
Битрейт аудио: lossless
Продолжительность: 00:42:55
Источник (релизер): Net
Наличие сканов в содержимом раздачи: нет
Треклист:
01 Jackie-ing (Thelonious Monk)
02 Missed (PJ Harvey)
03 Some Day We'll All Be Free (Donny Hathaway)
04 Philadelphia (Neil Young)
05 St Ita's Vision (Samuel Barber)
06 We've Only Just Begun (Paul Williams, Roger Nichols)
07 Broken (Ben Allison)
 
Лог создания рипа
Exact Audio Copy V1.0 beta 1 from 15. November 2010
EAC extraction logfile from 3. September 2011, 18:28
Ben Allison / Action-Refraction
Used drive : PIONEER DVD-RW DVR-115D Adapter: 4 ID: 0
Read mode : Secure
Utilize accurate stream : Yes
Defeat audio cache : Yes
Make use of C2 pointers : No
Read offset correction : 48
Overread into Lead-In and Lead-Out : No
Fill up missing offset samples with silence : Yes
Delete leading and trailing silent blocks : No
Null samples used in CRC calculations : Yes
Used interface : Native Win32 interface for Win NT & 2000
Gap handling : Appended to previous track
Used output format : User Defined Encoder
Selected bitrate : 128 kBit/s
Quality : High
Add ID3 tag : No
Command line compressor : C:\Program Files (x86)\Exact Audio Copy\Flac\flac.exe
Additional command line options : -V -8 -T "artist=%a" -T "title=%t" -T "album=%g" -T "date=%y" -T "tracknumber=%n" -T "genre=%m" %s
TOC of the extracted CD
Track | Start | Length | Start sector | End sector
---------------------------------------------------------
1 | 0:00.00 | 4:52.62 | 0 | 21961
2 | 4:52.62 | 5:15.73 | 21962 | 45659
3 | 10:08.60 | 7:11.30 | 45660 | 78014
4 | 17:20.15 | 5:37.57 | 78015 | 103346
5 | 22:57.72 | 7:00.33 | 103347 | 134879
6 | 29:58.30 | 7:50.50 | 134880 | 170179
7 | 37:49.05 | 5:06.25 | 170180 | 193154
Track 1
Filename D:\EAC Rips\Ben Allison - Action-Refraction\01 - Jackie-ing.wav
Pre-gap length 0:00:02.00
Peak level 99.7 %
Extraction speed 4.7 X
Track quality 100.0 %
Test CRC 6EFDEBC6
Copy CRC 6EFDEBC6
Accurately ripped (confidence 2) [B9FB0400]
Copy OK
Track 2
Filename D:\EAC Rips\Ben Allison - Action-Refraction\02 - Missed.wav
Peak level 99.7 %
Extraction speed 5.3 X
Track quality 100.0 %
Test CRC 92E51547
Copy CRC 92E51547
Accurately ripped (confidence 2) [C1F57DD4]
Copy OK
Track 3
Filename D:\EAC Rips\Ben Allison - Action-Refraction\03 - Some Day We'll All Be Free.wav
Peak level 100.0 %
Extraction speed 6.2 X
Track quality 100.0 %
Test CRC A3E8447A
Copy CRC A3E8447A
Accurately ripped (confidence 2) [055CA834]
Copy OK
Track 4
Filename D:\EAC Rips\Ben Allison - Action-Refraction\04 - Philadelphia.wav
Peak level 99.6 %
Extraction speed 6.6 X
Track quality 100.0 %
Test CRC FD511CAE
Copy CRC FD511CAE
Accurately ripped (confidence 2) [930AF28E]
Copy OK
Track 5
Filename D:\EAC Rips\Ben Allison - Action-Refraction\05 - St Ita's Vision.wav
Peak level 99.6 %
Extraction speed 7.2 X
Track quality 100.0 %
Test CRC E8F7379A
Copy CRC E8F7379A
Accurately ripped (confidence 2) [44160C30]
Copy OK
Track 6
Filename D:\EAC Rips\Ben Allison - Action-Refraction\06 - We've Only Just Begun.wav
Peak level 100.0 %
Extraction speed 7.8 X
Track quality 100.0 %
Test CRC EB4A88F1
Copy CRC EB4A88F1
Accurately ripped (confidence 2) [41A99E9C]
Copy OK
Track 7
Filename D:\EAC Rips\Ben Allison - Action-Refraction\07 - Broken.wav
Peak level 99.6 %
Extraction speed 8.0 X
Track quality 100.0 %
Test CRC EFAD3D26
Copy CRC EFAD3D26
Accurately ripped (confidence 2) [05451C07]
Copy OK
All tracks accurately ripped
No errors occurred
End of status report
==== Log checksum D78D0B1CFC87DE33E82228A4DA493A20374907759CDAAC4246A9C0DBF4BFC50E ====
 
Содержание индексной карты (.CUE)
REM GENRE "Post Bop"
REM DATE 2011
REM DISCID 480A0F07
REM COMMENT "ExactAudioCopy v1.0b1"
PERFORMER "Ben Allison"
TITLE "Action-Refraction"
FILE "01 - Jackie-ing.wav" WAVE
TRACK 01 AUDIO
TITLE "Jackie-ing"
PERFORMER "Ben Allison"
INDEX 01 00:00:00
FILE "02 - Missed.wav" WAVE
TRACK 02 AUDIO
TITLE "Missed"
PERFORMER "Ben Allison"
INDEX 01 00:00:00
FILE "03 - Some Day We'll All Be Free.wav" WAVE
TRACK 03 AUDIO
TITLE "Some Day We'll All Be Free"
PERFORMER "Ben Allison"
INDEX 01 00:00:00
FILE "04 - Philadelphia.wav" WAVE
TRACK 04 AUDIO
TITLE "Philadelphia"
PERFORMER "Ben Allison"
INDEX 01 00:00:00
FILE "05 - St Ita's Vision.wav" WAVE
TRACK 05 AUDIO
TITLE "St Ita's Vision"
PERFORMER "Ben Allison"
INDEX 01 00:00:00
FILE "06 - We've Only Just Begun.wav" WAVE
TRACK 06 AUDIO
TITLE "We've Only Just Begun"
PERFORMER "Ben Allison"
INDEX 01 00:00:00
FILE "07 - Broken.wav" WAVE
TRACK 07 AUDIO
TITLE "Broken"
PERFORMER "Ben Allison"
INDEX 01 00:00:00
 
Лог проверки качества
-----------------------
DON'T MODIFY THIS FILE
-----------------------
PERFORMER: auCDtect Task Manager, ver. 1.5.1RC4 build 1.5.1.5
Copyright (c) 2008-2010 y-soft. All rights reserved
http://y-soft.org
ANALYZER: auCDtect: CD records authenticity detector, version 0.8.2
Copyright (c) 2004 Oleg Berngardt. All rights reserved.
Copyright (c) 2004 Alexander Djourik. All rights reserved.
FILE: 07 - Broken.flac
Size: 23415597 Hash: E05BA644F51F847A9BA5DB9D5915218C Accuracy: -m0
Conclusion: CDDA 100%
Signature: E951E141B31958F0368EDB3E46F10BB3593D1ADD
FILE: 06 - We've Only Just Begun.flac
Size: 54293814 Hash: FEA960CCF8416FF344B9964147EFDC17 Accuracy: -m0
Conclusion: CDDA 100%
Signature: 776FCF5AC3B6883FAA0E1EB4978DDD89017731F1
FILE: 05 - St Ita's Vision.flac
Size: 38847456 Hash: FF87FA5F5622E2A92DA3AB874FBFED92 Accuracy: -m0
Conclusion: CDDA 100%
Signature: B56D8FD777A3B8D952F8F3FADA2AE3A30E086B3B
FILE: 04 - Philadelphia.flac
Size: 27190936 Hash: 94E6D6F9883834AB04ED5CE0D73410AF Accuracy: -m0
Conclusion: CDDA 100%
Signature: 691589528D5F496294052D6340E92121FFC7A585
FILE: 03 - Some Day We'll All Be Free.flac
Size: 45760156 Hash: 5515AADBB6C5622775CA20DE2C6BCE0B Accuracy: -m0
Conclusion: CDDA 100%
Signature: CEA8DAA45121686EBAB00ED750E701D21049DF6C
FILE: 02 - Missed.flac
Size: 31410899 Hash: ACAF7A1E014F8BF1733212D03B5272EC Accuracy: -m0
Conclusion: CDDA 100%
Signature: F9361646BC31CCA96C268877A9488C9CC11D8562
FILE: 01 - Jackie-ing.flac
Size: 31786777 Hash: 3630D7181A71E9390C504B854DB4091C Accuracy: -m0
Conclusion: CDDA 99%
Signature: 42BA423E28DB05FE844720684643F1177FBFBD59
Any questions -> support@pro-jazz.com. По всем вопросам пишите -> support@pro-jazz.com
16:46
185
Нет комментариев. Ваш будет первым!