Вы используете незарегистрированную версию компонента "Вкладки"!

Поиск

(Modern Creative, Avant-Garde, Vibraphone) Vibes (Bill Ware, E.J. Rodriguez, Brad Jones) - Liebe Tunina - 2000, FLAC (image+.cue), lossless

Треклист:
Vibes (Bill Ware, E.J. Rodriguez, Brad Jones) / Liebe Tunina
Жанр: Modern Creative, Avant-Garde, Vibraphone
Страна-производитель диска: Russia
Год издания диска: 2000
Издатель (лейбл): российское переиздание Knitting Factory Works (2000)
Аудиокодек: FLAC (*.flac)
Тип рипа: image+.cue
Битрейт аудио: lossless
Продолжительность: 63:16
Источник (релизер): Собственный рип с оригинального диска
Наличие сканов в содержимом раздачи: да
Треклист:
1 Stray Dogs
2 Ultra Marine
3 Dark Alleys
4 I Want to Spend the Night
5 Caught In a Dream
6 Lullavibe
7 Doesn't Anybody
8 BQB
9 No Fun (In the Run and Gun)
10 Read Between The Lies
11 Falsante, El
12 Laugh Over Me
 
Лог создания рипа
Exact Audio Copy V0.99 prebeta 5 from 4. May 2009
EAC extraction logfile from 26. June 2011, 10:40
Vibes / Liebe Tunina
Used drive : Optiarc DVD RW AD-5200S Adapter: 0 ID: 1
Read mode : Secure
Utilize accurate stream : Yes
Defeat audio cache : Yes
Make use of C2 pointers : No
Read offset correction : 48
Overread into Lead-In and Lead-Out : No
Fill up missing offset samples with silence : Yes
Delete leading and trailing silent blocks : No
Null samples used in CRC calculations : Yes
Used interface : Native Win32 interface for Win NT & 2000
Used output format : Internal WAV Routines
Sample format : 44.100 Hz; 16 Bit; Stereo
TOC of the extracted CD
Track | Start | Length | Start sector | End sector
---------------------------------------------------------
1 | 0:00.00 | 5:24.01 | 0 | 24300
2 | 5:24.01 | 4:48.40 | 24301 | 45940
3 | 10:12.41 | 5:48.12 | 45941 | 72052
4 | 16:00.53 | 4:48.40 | 72053 | 93692
5 | 20:49.18 | 4:38.40 | 93693 | 114582
6 | 25:27.58 | 4:37.22 | 114583 | 135379
7 | 30:05.05 | 5:09.13 | 135380 | 158567
8 | 35:14.18 | 5:05.14 | 158568 | 181456
9 | 40:19.32 | 6:12.67 | 181457 | 209423
10 | 46:32.24 | 6:02.54 | 209424 | 236627
11 | 52:35.03 | 4:20.57 | 236628 | 256184
12 | 56:55.60 | 6:20.37 | 256185 | 284721
Range status and errors
Selected range
Filename H:\FOS\MY_MUSIC\Vibes - Liebe Tunina\Vibes - Liebe Tunina.wav
Peak level 97.1 %
Range quality 100.0 %
Test CRC 1557C8F9
Copy CRC 1557C8F9
Copy OK
No errors occurred
End of status report
 
Содержание индексной карты (.CUE)
REM GENRE Jazz
REM DISCID 9B0ED40C
REM COMMENT "ExactAudioCopy v0.99pb5"
PERFORMER "Vibes"
TITLE "Liebe Tunina"
FILE "Vibes - Liebe Tunina.wav" WAVE
TRACK 01 AUDIO
TITLE "Stray Dogs"
PERFORMER "Vibes"
INDEX 01 00:00:00
TRACK 02 AUDIO
TITLE "Ultra Marine"
PERFORMER "Vibes"
INDEX 01 05:24:01
TRACK 03 AUDIO
TITLE "Darl Alleys"
PERFORMER "Vibes"
INDEX 01 10:12:41
TRACK 04 AUDIO
TITLE "I Wnat To Spend The Night"
PERFORMER "Vibes"
INDEX 01 16:00:53
TRACK 05 AUDIO
TITLE "Caught In A Dream"
PERFORMER "Vibes"
INDEX 01 20:49:18
TRACK 06 AUDIO
TITLE "Lullavibe"
PERFORMER "Vibes"
INDEX 00 25:24:58
INDEX 01 25:27:58
TRACK 07 AUDIO
TITLE "Doesn'T Anybody"
PERFORMER "Vibes"
INDEX 01 30:05:05
TRACK 08 AUDIO
TITLE "Bqb"
PERFORMER "Vibes"
INDEX 01 35:14:18
TRACK 09 AUDIO
TITLE "No Fun (In The Run And Gun)"
PERFORMER "Vibes"
INDEX 01 40:19:32
TRACK 10 AUDIO
TITLE "Read Between The Lies"
PERFORMER "Vibes"
INDEX 01 46:32:24
TRACK 11 AUDIO
TITLE "El Falsante"
PERFORMER "Vibes"
INDEX 01 52:35:03
TRACK 12 AUDIO
TITLE "Laugh Over Me"
PERFORMER "Vibes"
INDEX 01 56:55:60
 
Состав
Vibes:
Bill Ware (vocals, vibraphone);
E.J. Rodriguez (vocals, drums, percussion);
Brad Jones (bass, background vocals).
Any questions -> support@pro-jazz.com. По всем вопросам пишите -> support@pro-jazz.com
14:02
139
Нет комментариев. Ваш будет первым!