Вы используете незарегистрированную версию компонента "Вкладки"!

Поиск

(Modern Creative / Avant-Garde) Mark Helias - Loopin' The Cool - 1995, FLAC (image+.cue), lossless

(Modern Creative / Avant-Garde) Mark Helias - Loopin' The Cool - 1995, FLAC (image+.cue), lossless
Треклист:
Mark Helias - Loopin' The Cool

Жанр: Modern Creative / Avant-Garde
Год выпуска диска: 1995
Производитель диска: Germany (Enja 9049)
Аудио кодек: FLAC
Тип рипа: image+.cue
Битрейт аудио: lossless
Продолжительность: 1:03:23
Mark Helias: bass
Ellery Eskelin: tenor saxophone
Regina Carter: violin
Tom Rainey: drums, percussion
Abdoulaye Epizo Bangoura: djembe, percussion
1. Munchkins
2. Loop The Cool
3. One Time Only
4. Sector 51
5. Seventh Sign
6. Penta Houve
7. Thumbs Up
8. Hung Over Easy
9. El Baz
10. Pacific Rim

 
AMG Review
Although every musician is important on this stimulating session (the tightness of drummer Tom Rainey and percussionist Epizo Bangoura is not to be overlooked), one's attention is generally drawn to the three main voices. Bassist-leader Mark Helias contributed all of the compositions and arrangements and functions both as a member of the rhythm section and as a lead player. Violinist Regina Carter blends in colorfully with Ellery Eskelin's tenor and comes up with many inventive and unpredictable solos. Eskelin, who takes honors throughout the date, at times recalls both Clifford Jordan (in his sound) and prime Archie Shepp (the tonal distortions). The music in general is more conventional than the improvisations but also contains some unexpected moments and hints of both folk and Indian music along with advanced jazz. Easily recommended to adventurous listeners. ~ Scott Yanow, AMG
 
EAC Report
Exact Audio Copy V0.99 prebeta 5 from 4. May 2009
EAC extraction logfile from 7. January 2010, 23:11
Mark Helias / Loopin' The Cool
Used drive : hp DVD-RAM GH40L Adapter: 0 ID: 1
Read mode : Secure
Utilize accurate stream : Yes
Defeat audio cache : Yes
Make use of C2 pointers : No
Read offset correction : 667
Overread into Lead-In and Lead-Out : No
Fill up missing offset samples with silence : Yes
Delete leading and trailing silent blocks : No
Null samples used in CRC calculations : Yes
Used interface : Installed external ASPI interface
Used output format : User Defined Encoder
Selected bitrate : 1024 kBit/s
Quality : High
Add ID3 tag : No
Command line compressor : C:\Program Files\Exact Audio Copy\Flac\flac.exe
Additional command line options : -6 -V -T "ARTIST=%a" -T "TITLE=%t" -T "ALBUM=%g" -T "DATE=%y" -T "TRACKNUMBER=%n" -T "GENRE=%m" -T "COMMENT=EAC FLAC -6" %s
TOC of the extracted CD
Track | Start | Length | Start sector | End sector
---------------------------------------------------------
1 | 0:00.00 | 5:44.60 | 0 | 25859
2 | 5:44.60 | 7:30.37 | 25860 | 59646
3 | 13:15.22 | 6:57.23 | 59647 | 90944
4 | 20:12.45 | 7:30.32 | 90945 | 124726
5 | 27:43.02 | 9:28.05 | 124727 | 167331
6 | 37:11.07 | 3:39.60 | 167332 | 183816
7 | 40:50.67 | 7:14.15 | 183817 | 216381
8 | 48:05.07 | 6:06.25 | 216382 | 243856
9 | 54:11.32 | 2:36.53 | 243857 | 255609
10 | 56:48.10 | 6:34.70 | 255610 | 285229
Range status and errors
Selected range
Filename C:\Users\Igor\Music\eac\Mark Helias - Loopin' The Cool.wav
Peak level 80.0 %
Range quality 100.0 %
Test CRC D9636293
Copy CRC D9636293
Copy OK
No errors occurred
AccurateRip summary
Track 1 accurately ripped (confidence 2) [35BB8E58]
Track 2 accurately ripped (confidence 2) [3E8CA509]
Track 3 accurately ripped (confidence 2) [EAC7CB25]
Track 4 accurately ripped (confidence 2) [E0D11BAA]
Track 5 accurately ripped (confidence 2) [3FB769D5]
Track 6 accurately ripped (confidence 2) [5347DC57]
Track 7 accurately ripped (confidence 2) [125D6A06]
Track 8 accurately ripped (confidence 2) [4C2F0C42]
Track 9 accurately ripped (confidence 2) [0F365A7B]
Track 10 accurately ripped (confidence 2) [8244A84D]
All tracks accurately ripped
End of status report
Any questions -> support@pro-jazz.com. По всем вопросам пишите -> support@pro-jazz.com
18:18
108
Нет комментариев. Ваш будет первым!