Поиск

(modern creative, avant-garde jazz) William Parker Organ Quartet - Uncle Joe's Spirit House - 2010, FLAC (tracks+.cue) lossless

Треклист:
William Parker Organ Quartet - Uncle Joe's Spirit House (2010)
Жанр: modern creative, avant-garde jazz
Страна-производитель диска: USA
Дата записи: January 22, 2010
Год издания диска: 2010
Издатель (лейбл): AUM Fidelity
Номер по каталогу: CENT1004
Страна: USA
Аудио кодек: FLAC (*.flac)
Тип рипа: tracks+.cue
Битрейт аудио: lossless
Продолжительность: 1:04:34
Источник (релизер): what.cd (box)
Наличие сканов в содержимом раздачи: да, только фронт
Треклист:
1 Uncle Joe's Spirit House - 9.00
2 Jacques' Groove - 2.12
3 Ennio's Tag - 5.42
4 Document for LJ - 10.43
5 Let's Go Down to the River - 7.19
6 Buddha's Joy - 8.46
7 The Struggle - 8.46
8 Theme for the Tasters - 7.49
9 Oasis - 4.13
 
Лог создания рипа
Exact Audio Copy V0.99 prebeta 5 from 4. May 2009
EAC extraction logfile from 18. September 2010, 10:40
William Parker Organ Quartet / Uncle Joe's Spirit House
Used drive : SAMSUNG CDRW/DVD SM-308B Adapter: 0 ID: 0
Read mode : Secure
Utilize accurate stream : Yes
Defeat audio cache : Yes
Make use of C2 pointers : No
Read offset correction : 120
Overread into Lead-In and Lead-Out : No
Fill up missing offset samples with silence : Yes
Delete leading and trailing silent blocks : No
Null samples used in CRC calculations : Yes
Used interface : Native Win32 interface for Win NT & 2000
Gap handling : Appended to previous track
Used output format : User Defined Encoder
Selected bitrate : 192 kBit/s
Quality : High
Add ID3 tag : Yes
Command line compressor : C:\Documents and Settings\jhudak\Desktop\Joe\Exact Audio Copy\FLAC\flac.exe
Additional command line options : -V -8 -T "artist=%a" -T "title=%t" -T "album=%g" -T "date=%y" -T "tracknumber=%n" -T "genre=%m" %s
TOC of the extracted CD
Track | Start | Length | Start sector | End sector
---------------------------------------------------------
1 | 0:00.00 | 9:01.61 | 0 | 40635
2 | 9:01.61 | 2:13.27 | 40636 | 50637
3 | 11:15.13 | 5:41.42 | 50638 | 76254
4 | 16:56.55 | 10:44.45 | 76255 | 124599
5 | 27:41.25 | 7:19.03 | 124600 | 157527
6 | 35:00.28 | 8:47.33 | 157528 | 197085
7 | 43:47.61 | 8:46.45 | 197086 | 236580
8 | 52:34.31 | 7:47.41 | 236581 | 271646
9 | 60:21.72 | 4:12.19 | 271647 | 290565
Track 1
Filename C:\Documents and Settings\jhudak\Desktop\Joe\William Parker Organ Quartet - Uncle Joe's Spirit House (William Parker Organ Quartet)\William Parker Organ Quartet - 01 - Uncle Joe's Spirit House.wav
Pre-gap length 0:00:02.00
Peak level 99.3 %
Track quality 100.0 %
Test CRC 90DBC886
Copy CRC 90DBC886
Track not present in AccurateRip database
Copy OK
Track 2
Filename C:\Documents and Settings\jhudak\Desktop\Joe\William Parker Organ Quartet - Uncle Joe's Spirit House (William Parker Organ Quartet)\William Parker Organ Quartet - 02 - Jacques' Groove.wav
Pre-gap length 0:00:01.74
Peak level 77.7 %
Track quality 100.0 %
Test CRC FEC40BE5
Copy CRC FEC40BE5
Track not present in AccurateRip database
Copy OK
Track 3
Filename C:\Documents and Settings\jhudak\Desktop\Joe\William Parker Organ Quartet - Uncle Joe's Spirit House (William Parker Organ Quartet)\William Parker Organ Quartet - 03 - Ennio's Tag.wav
Pre-gap length 0:00:03.00
Peak level 99.3 %
Track quality 100.0 %
Test CRC CC17061D
Copy CRC CC17061D
Track not present in AccurateRip database
Copy OK
Track 4
Filename C:\Documents and Settings\jhudak\Desktop\Joe\William Parker Organ Quartet - Uncle Joe's Spirit House (William Parker Organ Quartet)\William Parker Organ Quartet - 04 - Document for LJ.wav
Pre-gap length 0:00:02.00
Peak level 99.3 %
Track quality 100.0 %
Test CRC 839CAB21
Copy CRC 839CAB21
Track not present in AccurateRip database
Copy OK
Track 5
Filename C:\Documents and Settings\jhudak\Desktop\Joe\William Parker Organ Quartet - Uncle Joe's Spirit House (William Parker Organ Quartet)\William Parker Organ Quartet - 05 - Let's Go Down to the River.wav
Pre-gap length 0:00:04.02
Peak level 99.3 %
Track quality 100.0 %
Test CRC 68AEFAA9
Copy CRC 68AEFAA9
Track not present in AccurateRip database
Copy OK
Track 6
Filename C:\Documents and Settings\jhudak\Desktop\Joe\William Parker Organ Quartet - Uncle Joe's Spirit House (William Parker Organ Quartet)\William Parker Organ Quartet - 06 - Buddha's Joy.wav
Pre-gap length 0:00:03.07
Peak level 99.3 %
Track quality 100.0 %
Test CRC B39DD878
Copy CRC B39DD878
Track not present in AccurateRip database
Copy OK
Track 7
Filename C:\Documents and Settings\jhudak\Desktop\Joe\William Parker Organ Quartet - Uncle Joe's Spirit House (William Parker Organ Quartet)\William Parker Organ Quartet - 07 - The Struggle.wav
Pre-gap length 0:00:04.00
Peak level 99.3 %
Track quality 100.0 %
Test CRC 0F7D1CFA
Copy CRC 0F7D1CFA
Track not present in AccurateRip database
Copy OK
Track 8
Filename C:\Documents and Settings\jhudak\Desktop\Joe\William Parker Organ Quartet - Uncle Joe's Spirit House (William Parker Organ Quartet)\William Parker Organ Quartet - 08 - Theme for the Tasters.wav
Pre-gap length 0:00:03.01
Peak level 99.3 %
Track quality 99.9 %
Test CRC 02C6A19C
Copy CRC 02C6A19C
Track not present in AccurateRip database
Copy OK
Track 9
Filename C:\Documents and Settings\jhudak\Desktop\Joe\William Parker Organ Quartet - Uncle Joe's Spirit House (William Parker Organ Quartet)\William Parker Organ Quartet - 09 - Oasis.wav
Pre-gap length 0:00:02.00
Peak level 99.3 %
Track quality 100.0 %
Test CRC 1D03377B
Copy CRC 1D03377B
Track not present in AccurateRip database
Copy OK
None of the tracks are present in the AccurateRip database
No errors occurred
End of status report
 
Содержание индексной карты (.CUE)
REM GENRE Jazz
REM DATE 2010
REM DISCID 710F2209
REM COMMENT "ExactAudioCopy v0.99pb5"
PERFORMER "William Parker Organ Quartet"
TITLE "Uncle Joe's Spirit House"
FILE "William Parker Organ Quartet - Uncle Joe's Spirit House (William Parker Organ Quartet)\William Parker Organ Quartet - 01 - Uncle Joe's Spirit House.wav" WAVE
TRACK 01 AUDIO
TITLE "Uncle Joe's Spirit House"
PERFORMER "William Parker Organ Quartet"
INDEX 01 00:00:00
TRACK 02 AUDIO
TITLE "Jacques' Groove"
PERFORMER "William Parker Organ Quartet"
INDEX 00 08:59:62
FILE "William Parker Organ Quartet - Uncle Joe's Spirit House (William Parker Organ Quartet)\William Parker Organ Quartet - 02 - Jacques' Groove.wav" WAVE
INDEX 01 00:00:00
TRACK 03 AUDIO
TITLE "Ennio's Tag"
PERFORMER "William Parker Organ Quartet"
INDEX 00 02:10:27
FILE "William Parker Organ Quartet - Uncle Joe's Spirit House (William Parker Organ Quartet)\William Parker Organ Quartet - 03 - Ennio's Tag.wav" WAVE
INDEX 01 00:00:00
TRACK 04 AUDIO
TITLE "Document for LJ"
PERFORMER "William Parker Organ Quartet"
INDEX 00 05:39:42
FILE "William Parker Organ Quartet - Uncle Joe's Spirit House (William Parker Organ Quartet)\William Parker Organ Quartet - 04 - Document for LJ.wav" WAVE
INDEX 01 00:00:00
TRACK 05 AUDIO
TITLE "Let's Go Down to the River"
PERFORMER "William Parker Organ Quartet"
INDEX 00 10:40:43
FILE "William Parker Organ Quartet - Uncle Joe's Spirit House (William Parker Organ Quartet)\William Parker Organ Quartet - 05 - Let's Go Down to the River.wav" WAVE
INDEX 01 00:00:00
TRACK 06 AUDIO
TITLE "Buddha's Joy"
PERFORMER "William Parker Organ Quartet"
INDEX 00 07:15:71
FILE "William Parker Organ Quartet - Uncle Joe's Spirit House (William Parker Organ Quartet)\William Parker Organ Quartet - 06 - Buddha's Joy.wav" WAVE
INDEX 01 00:00:00
TRACK 07 AUDIO
TITLE "The Struggle"
PERFORMER "William Parker Organ Quartet"
INDEX 00 08:43:33
FILE "William Parker Organ Quartet - Uncle Joe's Spirit House (William Parker Organ Quartet)\William Parker Organ Quartet - 07 - The Struggle.wav" WAVE
INDEX 01 00:00:00
TRACK 08 AUDIO
TITLE "Theme for the Tasters"
PERFORMER "William Parker Organ Quartet"
INDEX 00 08:43:44
FILE "William Parker Organ Quartet - Uncle Joe's Spirit House (William Parker Organ Quartet)\William Parker Organ Quartet - 08 - Theme for the Tasters.wav" WAVE
INDEX 01 00:00:00
TRACK 09 AUDIO
TITLE "Oasis"
PERFORMER "William Parker Organ Quartet"
INDEX 00 07:45:41
FILE "William Parker Organ Quartet - Uncle Joe's Spirit House (William Parker Organ Quartet)\William Parker Organ Quartet - 09 - Oasis.wav" WAVE
INDEX 01 00:00:00
 
Состав
William Parker: bass
Darryl Foster: tenor sax
Cooper-Moore: organ
Gerald Cleaver: drums
По всем вопросам пишите личное сообщение пользователю M0p94ok.
03:41
229
Нет комментариев. Ваш будет первым!