Вы используете незарегистрированную версию компонента "Вкладки"!

Поиск

(Modern Creative / Avant-Garde) Ingrid Laubrock - Anti-House - 2010, FLAC (image+.cue) lossless

(Modern Creative / Avant-Garde) Ingrid Laubrock - Anti-House - 2010, FLAC (image+.cue) lossless
Треклист:
Ingrid Laubrock / Anti-House

Жанр: Modern Creative / Avant-Garde
Страна-производитель диска: Switzerland
Год издания диска: 2010
Издатель (лейбл): Intakt
Номер по каталогу: 173
Аудио кодек: FLAC (*.flac)
Тип рипа: image+.cue
Битрейт аудио: lossless
Продолжительность: 1:12:49
Источник (релизер): собственный рип
Наличие сканов в содержимом раздачи: нет
1. Slowfish Glowfish
2. Flowery Prison Cell
3. Messy Minimum
4. Quick Draw
5. Funhouse Clockwork
6. Tex & Clementine
7. Anti-House
8. Is Life Anything Like This
9. Big Dang
10. Big Crunch
11. Betterboon
12. Tom Can't Sleep
13. Oh Yes
14. Mina Lisa Trampoline
Recorded at Trout Recording, New York, January 16, 2010
 
Лог создания рипа
Exact Audio Copy V0.99 prebeta 4 from 23. January 2008
EAC extraction logfile from 24. August 2010, 22:47
Ingrid Laubrock / Anti-House
Used drive : TSSTcorpCD/DVDW SH-S182M Adapter: 1 ID: 1
Read mode : Secure
Utilize accurate stream : Yes
Defeat audio cache : Yes
Make use of C2 pointers : No
Read offset correction : 6
Overread into Lead-In and Lead-Out : No
Fill up missing offset samples with silence : Yes
Delete leading and trailing silent blocks : No
Null samples used in CRC calculations : Yes
Used interface : Installed external ASPI interface
Used output format : User Defined Encoder
Selected bitrate : 1024 kBit/s
Quality : High
Add ID3 tag : No
Command line compressor : C:\Program Files\Exact Audio Copy\Flac\flac.exe
Additional command line options : -6 -V -T "ARTIST=%a" -T "TITLE=%t" -T "ALBUM=%g" -T "DATE=%y" -T "TRACKNUMBER=%n" -T "GENRE=%m" -T "COMMENT=EAC FLAC -6" %s
TOC of the extracted CD
Track | Start | Length | Start sector | End sector
---------------------------------------------------------
1 | 0:00.00 | 4:16.08 | 0 | 19207
2 | 4:16.08 | 1:15.71 | 19208 | 24903
3 | 5:32.04 | 1:37.28 | 24904 | 32206
4 | 7:09.32 | 7:40.25 | 32207 | 66731
5 | 14:49.57 | 6:05.47 | 66732 | 94153
6 | 20:55.29 | 6:00.25 | 94154 | 121178
7 | 26:55.54 | 9:57.60 | 121179 | 166013
8 | 36:53.39 | 1:48.32 | 166014 | 174145
9 | 38:41.71 | 0:55.16 | 174146 | 178286
10 | 39:37.12 | 5:42.69 | 178287 | 204005
11 | 45:20.06 | 6:46.60 | 204006 | 234515
12 | 52:06.66 | 6:07.23 | 234516 | 262063
13 | 58:14.14 | 6:43.16 | 262064 | 292304
14 | 64:57.30 | 7:51.48 | 292305 | 327677
Range status and errors
Selected range
Filename C:\Users\Igor\Music\eac\Ingrid Laubrock - Anti-House.wav
Peak level 100.0 %
Range quality 100.0 %
Test CRC F013CE3A
Copy CRC F013CE3A
Copy OK
No errors occurred
AccurateRip summary
Track 1 not present in database
Track 2 not present in database
Track 3 not present in database
Track 4 not present in database
Track 5 not present in database
Track 6 not present in database
Track 7 not present in database
Track 8 not present in database
Track 9 not present in database
Track 10 not present in database
Track 11 not present in database
Track 12 not present in database
Track 13 not present in database
Track 14 not present in database
None of the tracks are present in the AccurateRip database
End of status report
 
Состав
Ingrid Laubrock: tenor and soprano saxophones
Mary Halvorson: guitar
John Hébert: bass
Tom Rainey: drums, glockenspiel
Guest:
Kris Davis: piano
По всем вопросам пишите личное сообщение пользователю M0p94ok.
03:57
138
Нет комментариев. Ваш будет первым!