Вы используете незарегистрированную версию компонента "Вкладки"!

Поиск

(Modern Creative / Avant-Garde / Free Improvisation) Clusone 3 - Love Henry - 1997, FLAC (image+.cue), lossless

(Modern Creative / Avant-Garde / Free Improvisation) Clusone 3 - Love Henry - 1997, FLAC (image+.cue), lossless
Треклист:
Clusone 3 - Love Henry
Жанр: Modern Creative / Avant-Garde / Free Improvisation
Год выпуска диска: 1997
Производитель диска: USA (Rykodisc GCD 79517)
Аудио кодек: FLAC
Тип рипа: image+.cue
Битрейт аудио: lossless
Продолжительность: 57:32
Michael Moore alto saxophone, clarinet, melodica, pan flute
Ernst Reijseger cello
Han Bennink drums, percussion, piano, voice
1. Introduction
2. Red Hot
3. When I Lost You
4. White Hot
5. It's You
6. White Spots
7. Cuckoo In The Clock
8. Uninhabited Island
9. Red spots
10. Bilbao Song
11. Restless In Pieces
12. Love Henry
13. In The Company Of Angels
14. Tempo Comodo
15. Moeder Aller Oorlogen
16. White Christmas / Give Me Your Tired, Your Poor
17. Ao Velho Pedro / Marie Pompoen
18. Goodbye
Recorded live at the 27th German Jazz Festival, Frankfurt, July 1996

 
AMG Review
The Clusone Trio (comprised of Michael Moore on alto, clarinet and flute, cellist Ernst Reijseger and drummer/percussionist Han Bennink) is so humorous and accessible that they could be considered avant-garde jazz for listeners who do not like the avant-garde. This live set finds the group playing spontaneous medleys with eccentric sound explorations leading to off-the-wall standards, including several Irving Berlin songs, Lee Konitz's "It's You" and Johnny Mercer's "Cuckoo in the Clock." One of the most colorful and satisfying regular groups in the more exploratory side of jazz (each of its members has his own sound and the ability to switch between several styles), the Clusone Trio's recordings are all worth experiencing several times. This nutty but generally logical performance is no exception and is better heard than described. ~ Scott Yanow, AMG
 
EAC Report
Exact Audio Copy V0.99 prebeta 4 from 23. January 2008
EAC extraction logfile from 10. June 2009, 23:09
Clusone Trio / Love Henry
Used drive : TSSTcorpCD/DVDW SH-S182M Adapter: 2 ID: 0
Read mode : Secure
Utilize accurate stream : Yes
Defeat audio cache : Yes
Make use of C2 pointers : No
Read offset correction : 6
Overread into Lead-In and Lead-Out : No
Fill up missing offset samples with silence : Yes
Delete leading and trailing silent blocks : No
Null samples used in CRC calculations : Yes
Used interface : Installed external ASPI interface
Used output format : User Defined Encoder
Selected bitrate : 1024 kBit/s
Quality : High
Add ID3 tag : No
Command line compressor : C:\Program Files\Exact Audio Copy\FLAC\FLAC.EXE
Additional command line options : -8 -V -T "ARTIST=%a" -T "TITLE=%t" -T "ALBUM=%g" -T "DATE=%y" -T "TRACKNUMBER=%n" -T "GENRE=%m" -T "COMMENT=%e" %s -o %d
TOC of the extracted CD
Track | Start | Length | Start sector | End sector
---------------------------------------------------------
1 | 0:00.00 | 0:24.65 | 0 | 1864
2 | 0:24.65 | 4:59.32 | 1865 | 24321
3 | 5:24.22 | 2:36.45 | 24322 | 36066
4 | 8:00.67 | 1:13.70 | 36067 | 41611
5 | 9:14.62 | 5:48.20 | 41612 | 67731
6 | 15:03.07 | 1:10.68 | 67732 | 73049
7 | 16:14.00 | 1:10.17 | 73050 | 78316
8 | 17:24.17 | 3:26.38 | 78317 | 93804
9 | 20:50.55 | 1:34.62 | 93805 | 100916
10 | 22:25.42 | 3:09.50 | 100917 | 115141
11 | 25:35.17 | 3:07.55 | 115142 | 129221
12 | 28:42.72 | 4:28.63 | 129222 | 149384
13 | 33:11.60 | 7:53.00 | 149385 | 184859
14 | 41:04.60 | 1:05.35 | 184860 | 189769
15 | 42:10.20 | 1:21.72 | 189770 | 195916
16 | 43:32.17 | 3:43.08 | 195917 | 212649
17 | 47:15.25 | 5:30.62 | 212650 | 237461
18 | 52:46.12 | 4:45.43 | 237462 | 258879
Range status and errors
Selected range
Filename C:\Documents and Settings\Igor\My Documents\My Music\eac\Clusone Trio - Love Henry.wav
Peak level 100.0 %
Range quality 100.0 %
Test CRC 93BC29B0
Copy CRC 93BC29B0
Copy OK
No errors occurred
AccurateRip summary
Track 1 accurately ripped (confidence 2) [4DB2E3DF]
Track 2 accurately ripped (confidence 2) [F5A0EDBD]
Track 3 accurately ripped (confidence 2) [F750E379]
Track 4 accurately ripped (confidence 2) [FF1711CC]
Track 5 accurately ripped (confidence 2) [AFEFA2F0]
Track 6 accurately ripped (confidence 2) [6B488C5B]
Track 7 accurately ripped (confidence 2) [75813CC6]
Track 8 accurately ripped (confidence 2) [D4538C77]
Track 9 accurately ripped (confidence 2) [E3EDB091]
Track 10 accurately ripped (confidence 2) [EB100F5A]
Track 11 accurately ripped (confidence 2) [BFC06AE6]
Track 12 accurately ripped (confidence 2) [D34A0888]
Track 13 accurately ripped (confidence 2) [AB7F48DC]
Track 14 accurately ripped (confidence 2) [C964900C]
Track 15 accurately ripped (confidence 2) [7A77C030]
Track 16 accurately ripped (confidence 2) [7491F09E]
Track 17 accurately ripped (confidence 2) [6B9AE79E]
Track 18 accurately ripped (confidence 2) [59F50F9E]
All tracks accurately ripped
End of status report
По всем вопросам пишите личное сообщение пользователю M0p94ok.
15:43
187
Нет комментариев. Ваш будет первым!