Вы используете незарегистрированную версию компонента "Вкладки"!

Поиск

(Modern Creative, Avant-Garde) [CD] The Flail - Live At Smalls - 2011, FLAC (tracks+.cue), lossless

(Modern Creative, Avant-Garde) [CD] The Flail - Live At Smalls - 2011, FLAC (tracks+.cue), lossless
Треклист:
The Flail - Live At Smalls Жанр: Modern Creative, Avant-Garde
Носитель: CD
Год издания: 2011
Издатель (лейбл): SmallsLive
Номер по каталогу: SL0020
Аудиокодек: FLAC (*.flac)
Тип рипа: tracks+.cue
Битрейт аудио: lossless
Продолжительность: 77:10
Rip by tdelyon
Наличие сканов в содержимом раздачи: да
Треклист:
01. Mr. Potato Bass (11:55)
02. Better Watch What You Wish For (6:48)
03. A Sunny Day In Mongerville (12:05)
04. Light At The Beginning Of The Tunnel (3:09)
05. Long Neck Beast (12:58)
06. Open Wound (13:26)
07. We're Not Out Of The Woods Yet (11:51)
08. Under The Influence Of Stereolab (4:57)
Personnel:
Dan Blankinship - tp
Stephan Moutot - ts
Brian Marsella - p
Reid Taylor - b
Matt Zebroski - d
Recorded Live at Smalls Jazz Club, October 8 & 9, 2010.
 
 
Лог создания рипа
Exact Audio Copy V1.0 beta 3 from 29. August 2011
EAC extraction logfile from 26. March 2015, 22:48
The Flail / Live At Smalls
Used drive : PHILIPS SPD3400CC Adapter: 0 ID: 0
Read mode : Secure
Utilize accurate stream : Yes
Defeat audio cache : Yes
Make use of C2 pointers : No
Read offset correction : 6
Overread into Lead-In and Lead-Out : No
Fill up missing offset samples with silence : Yes
Delete leading and trailing silent blocks : No
Null samples used in CRC calculations : Yes
Used interface : Native Win32 interface for Win NT & 2000
Gap handling : Appended to previous track
Used output format : User Defined Encoder
Selected bitrate : 1024 kBit/s
Quality : High
Add ID3 tag : No
Command line compressor : C:\Program Files (x86)\Exact Audio Copy\FLAC\FLAC.EXE
Additional command line options : -8 -V -T "ARTIST=%artist%" -T "TITLE=%title%" -T "ALBUM=%albumtitle%" -T "DATE=%year%" -T "TRACKNUMBER=%tracknr%" -T "TOTALTRACKS=%numtracks%" -T "GENRE=%genre%" -T "ALBUM ARTIST=%albumartist%" -T "ALBUMARTIST=%albumartist%" -T "COMMENT=EAC V1.0 beta 3, Secure Mode, Test & Copy, AccurateRip, FLAC -8" %source%
TOC of the extracted CD
Track | Start | Length | Start sector | End sector
---------------------------------------------------------
1 | 0:00.00 | 11:55.30 | 0 | 53654
2 | 11:55.30 | 6:47.45 | 53655 | 84224
3 | 18:43.00 | 12:05.30 | 84225 | 138629
4 | 30:48.30 | 3:09.05 | 138630 | 152809
5 | 33:57.35 | 12:58.35 | 152810 | 211194
6 | 46:55.70 | 13:26.27 | 211195 | 271671
7 | 60:22.22 | 11:50.45 | 271672 | 324966
8 | 72:12.67 | 4:56.73 | 324967 | 347239
Track 1
Filename C:\Users\Maison\Downloads\Rips\01 - Mr. Potato Bass.wav
Pre-gap length 0:00:02.00
Peak level 100.0 %
Extraction speed 2.4 X
Track quality 100.0 %
Test CRC 0554B392
Copy CRC 0554B392
Accurately ripped (confidence 1) [3DAC618B] (AR v2)
Copy OK
Track 2
Filename C:\Users\Maison\Downloads\Rips\02 - Better Watch What You Wish For.wav
Pre-gap length 0:00:01.55
Peak level 99.7 %
Extraction speed 2.7 X
Track quality 100.0 %
Test CRC 3CA3409C
Copy CRC 3CA3409C
Accurately ripped (confidence 1) [5ABD7014] (AR v2)
Copy OK
Track 3
Filename C:\Users\Maison\Downloads\Rips\03 - A Sunny Day In Mongerville.wav
Pre-gap length 0:00:02.18
Peak level 99.8 %
Extraction speed 2.9 X
Track quality 99.9 %
Test CRC B526D3A1
Copy CRC B526D3A1
Accurately ripped (confidence 1) [F22A85D8] (AR v2)
Copy OK
Track 4
Filename C:\Users\Maison\Downloads\Rips\04 - Light At The Beginning Of The Tunnel.wav
Pre-gap length 0:00:02.18
Peak level 99.8 %
Extraction speed 3.1 X
Track quality 100.0 %
Test CRC F7584E8C
Copy CRC F7584E8C
Accurately ripped (confidence 1) [DFAB07C0] (AR v2)
Copy OK
Track 5
Filename C:\Users\Maison\Downloads\Rips\05 - Long Neck Beast.wav
Pre-gap length 0:00:02.18
Peak level 100.0 %
Extraction speed 3.7 X
Track quality 100.0 %
Test CRC 10D1786A
Copy CRC 10D1786A
Accurately ripped (confidence 1) [880570F0] (AR v2)
Copy OK
Track 6
Filename C:\Users\Maison\Downloads\Rips\06 - Open Wound.wav
Pre-gap length 0:00:02.18
Peak level 99.7 %
Extraction speed 4.1 X
Track quality 100.0 %
Test CRC 080EFD3C
Copy CRC 080EFD3C
Accurately ripped (confidence 1) [209104A0] (AR v2)
Copy OK
Track 7
Filename C:\Users\Maison\Downloads\Rips\07 - We're Not Out Of The Woods Yet.wav
Pre-gap length 0:00:02.05
Peak level 99.8 %
Extraction speed 4.5 X
Track quality 100.0 %
Test CRC 660B44F7
Copy CRC 660B44F7
Accurately ripped (confidence 1) [A746698E] (AR v2)
Copy OK
Track 8
Filename C:\Users\Maison\Downloads\Rips\08 - Under The Influence Of Stereolab.wav
Pre-gap length 0:00:01.55
Peak level 99.5 %
Extraction speed 4.4 X
Track quality 100.0 %
Test CRC 3CA2165E
Copy CRC 3CA2165E
Accurately ripped (confidence 1) [CBE00723] (AR v2)
Copy OK
All tracks accurately ripped
No errors occurred
End of status report
==== Log checksum 691F0B8873192F3ECF5C91EC31DB3DBA9F1FE882CDE0BA6AA9756B47CB21E4EB ====
 
Содержание индексной карты (.CUE)
REM GENRE Jazz
REM DATE 2010
REM DISCID 65121508
REM COMMENT "ExactAudioCopy v1.0b3"
PERFORMER "The Flail"
TITLE "Live At Smalls"
FILE "01 - Mr. Potato Bass.wav" WAVE
TRACK 01 AUDIO
TITLE "Mr. Potato Bass"
PERFORMER "The Flail"
INDEX 01 00:00:00
TRACK 02 AUDIO
TITLE "Better Watch What You Wish For"
PERFORMER "The Flail"
INDEX 00 11:53:50
FILE "02 - Better Watch What You Wish For.wav" WAVE
INDEX 01 00:00:00
TRACK 03 AUDIO
TITLE "A Sunny Day In Mongerville"
PERFORMER "The Flail"
INDEX 00 06:45:27
FILE "03 - A Sunny Day In Mongerville.wav" WAVE
INDEX 01 00:00:00
TRACK 04 AUDIO
TITLE "Light At The Beginning Of The Tunnel"
PERFORMER "The Flail"
INDEX 00 12:03:12
FILE "04 - Light At The Beginning Of The Tunnel.wav" WAVE
INDEX 01 00:00:00
TRACK 05 AUDIO
TITLE "Long Neck Beast"
PERFORMER "The Flail"
INDEX 00 03:06:62
FILE "05 - Long Neck Beast.wav" WAVE
INDEX 01 00:00:00
TRACK 06 AUDIO
TITLE "Open Wound"
PERFORMER "The Flail"
INDEX 00 12:56:17
FILE "06 - Open Wound.wav" WAVE
INDEX 01 00:00:00
TRACK 07 AUDIO
TITLE "We're Not Out Of The Woods Yet"
PERFORMER "The Flail"
INDEX 00 13:24:22
FILE "07 - We're Not Out Of The Woods Yet.wav" WAVE
INDEX 01 00:00:00
TRACK 08 AUDIO
TITLE "Under The Influence Of Stereolab"
PERFORMER "The Flail"
INDEX 00 11:48:65
FILE "08 - Under The Influence Of Stereolab.wav" WAVE
INDEX 01 00:00:00
По всем вопросам пишите личное сообщение пользователю M0p94ok.
10:41
187
Нет комментариев. Ваш будет первым!