Вы используете незарегистрированную версию компонента "Вкладки"!

Поиск

(Modern Crative / Thrill Jockey) Chicago Underground Duo - 12 Degrees of Freedom - 1998, FLAC (tracks+.cue), lossless

Треклист:
Chicago Underground Duo - 12 Degrees of Freedom
Жанр: Modern Crative / Thrill Jockey
Год выпуска диска: 1998
Производитель диска: US (Thrill Jockey)
Аудио кодек: FLAC
Тип рипа: tracks+.cue
Битрейт аудио: lossless
Продолжительность: 46:33
Трэклист:
01 - The Pursued (4:29)
02 - Not quite dark yet and the stars shining above the withered fields (6:33)
03 - January 15th (10:47)
04 - The Big Bang Theory (3:47)
05 - Waiting for you is like watching stillness grow into enormous wings (2:57)
06 - Twelve Degrees of Freedom (3:52)
07 - Lemon Grass (1:40)
08 - Gratitude (5:03)
09 - Into the unanimous blue (7:26)
Доп. информация:
Rob Mazurek tp
Chad Taylor dr
 
EAC log
Exact Audio Copy V0.99 prebeta 4 from 23. January 2008
EAC extraction logfile from 14. May 2009, 13:37
Chicago Underground Duo / 12 degrees of freedom
Used drive : LG CD-ROM CRD-8322B Adapter: 0 ID: 1
Read mode : Secure
Utilize accurate stream : Yes
Defeat audio cache : Yes
Make use of C2 pointers : No
Read offset correction : -24
Overread into Lead-In and Lead-Out : No
Fill up missing offset samples with silence : Yes
Delete leading and trailing silent blocks : No
Null samples used in CRC calculations : Yes
Used interface : Native Win32 interface for Win NT & 2000
Gap handling : Appended to previous track
Used output format : User Defined Encoder
Selected bitrate : 256 kBit/s
Quality : High
Add ID3 tag : No
Command line compressor : C:\Program Files\FLAC\flac.exe
Additional command line options : -8 -A tukey(0.25) -A gauss(0.1875) -b 4096 -V -T "artist=%a" -T "title=%t" -T "album=%g" -T "date=%y" -T "tracknumber=%n" -T "genre=%m" %s --sector-align
TOC of the extracted CD
Track | Start | Length | Start sector | End sector
---------------------------------------------------------
1 | 0:00.00 | 4:28.72 | 0 | 20171
2 | 4:28.72 | 6:32.38 | 20172 | 49609
3 | 11:01.35 | 10:47.05 | 49610 | 98139
4 | 21:48.40 | 3:47.22 | 98140 | 115186
5 | 25:35.62 | 2:56.55 | 115187 | 128441
6 | 28:32.42 | 3:51.68 | 128442 | 145834
7 | 32:24.35 | 1:40.20 | 145835 | 153354
8 | 34:04.55 | 5:03.20 | 153355 | 176099
9 | 39:08.00 | 7:25.67 | 176100 | 209541
Track 1
Filename D:\MP3 Temp\Chicago Underground Duo\12 Degrees of Freedom\01 - Chicago Underground Duo - The Pursued.wav
Pre-gap length 0:00:02.00
Peak level 100.0 %
Track quality 99.9 %
Test CRC 50EEE1EB
Copy CRC 50EEE1EB
Track not present in AccurateRip database
Copy OK
Track 2
Filename D:\MP3 Temp\Chicago Underground Duo\12 Degrees of Freedom\02 - Chicago Underground Duo - Not quite dark yet and the stars shining above the withered fields.wav
Pre-gap length 0:00:02.16
Peak level 81.8 %
Track quality 99.9 %
Test CRC 18E3C6B6
Copy CRC 18E3C6B6
Track not present in AccurateRip database
Copy OK
Track 3
Filename D:\MP3 Temp\Chicago Underground Duo\12 Degrees of Freedom\03 - Chicago Underground Duo - January 15th.wav
Peak level 100.0 %
Track quality 99.9 %
Test CRC 8F034200
Copy CRC 8F034200
Track not present in AccurateRip database
Copy OK
Track 4
Filename D:\MP3 Temp\Chicago Underground Duo\12 Degrees of Freedom\04 - Chicago Underground Duo - The Big Bang Theory.wav
Pre-gap length 0:00:03.66
Peak level 24.5 %
Track quality 99.9 %
Test CRC E09FF06B
Copy CRC E09FF06B
Track not present in AccurateRip database
Copy OK
Track 5
Filename D:\MP3 Temp\Chicago Underground Duo\12 Degrees of Freedom\05 - Chicago Underground Duo - Waiting for you is like watching stillness grow into enormous wings.wav
Peak level 52.6 %
Track quality 100.0 %
Test CRC E83CC16D
Copy CRC E83CC16D
Track not present in AccurateRip database
Copy OK
Track 6
Filename D:\MP3 Temp\Chicago Underground Duo\12 Degrees of Freedom\06 - Chicago Underground Duo - Twelve Degrees of Freedom.wav
Peak level 99.7 %
Track quality 100.0 %
Test CRC 3D094D9B
Copy CRC 3D094D9B
Track not present in AccurateRip database
Copy OK
Track 7
Filename D:\MP3 Temp\Chicago Underground Duo\12 Degrees of Freedom\07 - Chicago Underground Duo - Lemon Grass.wav
Peak level 82.2 %
Track quality 99.8 %
Test CRC 16EA0A61
Copy CRC 16EA0A61
Track not present in AccurateRip database
Copy OK
Track 8
Filename D:\MP3 Temp\Chicago Underground Duo\12 Degrees of Freedom\08 - Chicago Underground Duo - Gratitude.wav
Pre-gap length 0:00:05.74
Peak level 88.9 %
Track quality 100.0 %
Test CRC D86E3E97
Copy CRC D86E3E97
Track not present in AccurateRip database
Copy OK
Track 9
Filename D:\MP3 Temp\Chicago Underground Duo\12 Degrees of Freedom\09 - Chicago Underground Duo - Into the unanimous blue.wav
Pre-gap length 0:00:04.44
Peak level 100.0 %
Track quality 100.0 %
Test CRC 01710907
Copy CRC 01710907
Track not present in AccurateRip database
Copy OK
None of the tracks are present in the AccurateRip database
No errors occurred
End of status report
В продолжение чикагской темы.
Any questions -> support@pro-jazz.com. По всем вопросам пишите -> support@pro-jazz.com
13:13
177
Нет комментариев. Ваш будет первым!