Вы используете незарегистрированную версию компонента "Вкладки"!

Поиск

(Modern Big Band) Toshiko Akiyoshi & Lew Tabackin Big Band - Kogun (1974) - 2003(?), FLAC (tracks+.cue), lossless

(Modern Big Band) Toshiko Akiyoshi & Lew Tabackin Big Band - Kogun (1974) - 2003(?), FLAC (tracks+.cue), lossless
Треклист:
Toshiko Akiyoshi & Lew Tabackin Big Band – Kogun (1974)
Жанр: Modern Big Band
Год издания: 2003(?)
Аудиокодек: FLAC (*.flac)
Тип рипа: tracks+.cue
Битрейт аудио: lossless
Продолжительность: 41:19
Источник (релизер): What.cd (drfunkenstein)
Наличие сканов в содержимом раздачи: нет
Треклист:
01. Elegy (9:13)
02. Memory (10:21)
03. Kogun (6:49)
04. American Ballad (5:49)
05. Henpecked Old Man (9:08)
 
Personnel:
Bobby Shew, John Madrid, Don Rader, Mike Price - tp
Charles Loper, Jim Sawyer, Britt Woodman - tb; Phil Teel - btb
Dick Spencer, Gary Foster - as; Lew Tabackin, Tom Peterson - ts; Bill Perkins - bars
Toshiko Akiyoshi - p
Gene Cherico - b
Peter Donald - d
Scott Elsworth - vo
Rec.: Sage & Sound Studio, Hollywood, CA, April 3 & 4, 1974.
 
 
Лог создания рипа
Exact Audio Copy V0.99 prebeta 4 from 23. January 2008
EAC extraction logfile from 23. March 2008, 11:48
Toshiko Akiyoshi-Lew Tabackin Big Band / Kogun
Used drive : _NEC DVD_RW ND-3520A Adapter: 1 ID: 0
Read mode : Secure
Utilize accurate stream : Yes
Defeat audio cache : Yes
Make use of C2 pointers : No
Read offset correction : 48
Overread into Lead-In and Lead-Out : No
Fill up missing offset samples with silence : Yes
Delete leading and trailing silent blocks : No
Null samples used in CRC calculations : Yes
Used interface : Installed external ASPI interface
Gap handling : Appended to previous track
Used output format : User Defined Encoder
Selected bitrate : 1024 kBit/s
Quality : High
Add ID3 tag : No
Command line compressor : C:\Program Files\FLAC\flac.exe
Additional command line options : -8 -V -T "ARTIST=%a" -T "TITLE=%t" -T "ALBUM=%g" -T "DATE=%y" -T "TRACKNUMBER=%n" -T "GENRE=%m" -T "COMMENT=EAC FLAC -8" %s
TOC of the extracted CD
Track | Start | Length | Start sector | End sector
---------------------------------------------------------
1 | 0:00.00 | 9:12.72 | 0 | 41471
2 | 9:12.72 | 10:21.28 | 41472 | 88074
3 | 19:34.25 | 6:48.47 | 88075 | 118721
4 | 26:22.72 | 5:48.38 | 118722 | 144859
5 | 32:11.35 | 9:08.02 | 144860 | 185961
Track 1
Filename C:\Documents and Settings\All Users\Documents\Toshiko Akiyoshi-Lew Tabackin Big Band - Kogun (1974) [FLAC]\01 - Elegy.wav
Pre-gap length 0:00:02.00
Peak level 98.0 %
Track quality 100.0 %
Test CRC 2971D36F
Copy CRC 2971D36F
Track not present in AccurateRip database
Copy OK
Track 2
Filename C:\Documents and Settings\All Users\Documents\Toshiko Akiyoshi-Lew Tabackin Big Band - Kogun (1974) [FLAC]\02 - Memory.wav
Pre-gap length 0:00:03.18
Peak level 98.0 %
Track quality 100.0 %
Test CRC 005E6BEC
Copy CRC 005E6BEC
Track not present in AccurateRip database
Copy OK
Track 3
Filename C:\Documents and Settings\All Users\Documents\Toshiko Akiyoshi-Lew Tabackin Big Band - Kogun (1974) [FLAC]\03 - Kogun.wav
Pre-gap length 0:00:03.29
Peak level 98.0 %
Track quality 99.6 %
Test CRC DDB64E98
Copy CRC DDB64E98
Track not present in AccurateRip database
Copy OK
Track 4
Filename C:\Documents and Settings\All Users\Documents\Toshiko Akiyoshi-Lew Tabackin Big Band - Kogun (1974) [FLAC]\04 - American Ballad.wav
Pre-gap length 0:00:03.32
Peak level 97.9 %
Track quality 100.0 %
Test CRC E7C53FDD
Copy CRC E7C53FDD
Track not present in AccurateRip database
Copy OK
Track 5
Filename C:\Documents and Settings\All Users\Documents\Toshiko Akiyoshi-Lew Tabackin Big Band - Kogun (1974) [FLAC]\05 - Henpecked Old Man.wav
Pre-gap length 0:00:03.42
Peak level 97.9 %
Track quality 100.0 %
Test CRC 08272677
Copy CRC 08272677
Track not present in AccurateRip database
Copy OK
None of the tracks are present in the AccurateRip database
No errors occurred
End of status report
 
Содержание индексной карты (.CUE)
REM GENRE Jazz
REM DATE 1974
REM DISCID 4109AF05
REM COMMENT "ExactAudioCopy v0.99pb4"
PERFORMER "Toshiko Akiyoshi - Lew Tabackin Big Band"
TITLE "Kogun"
FILE "01. Elegy.flac" WAVE
TRACK 01 AUDIO
TITLE "Elegy"
INDEX 01 00:00:00
TRACK 02 AUDIO
TITLE "Memory"
INDEX 00 09:09:58
FILE "02. Memory.flac" WAVE
INDEX 01 00:00:00
TRACK 03 AUDIO
TITLE "Kogun"
INDEX 00 10:18:06
FILE "03. Kogun.flac" WAVE
INDEX 01 00:00:00
TRACK 04 AUDIO
TITLE "American Ballad"
INDEX 00 06:45:23
FILE "04. American Ballad.flac" WAVE
INDEX 01 00:00:00
TRACK 05 AUDIO
TITLE "Henpecked Old Man"
INDEX 00 05:45:06
FILE "05. Henpecked Old Man.flac" WAVE
INDEX 01 00:00:00
 
CUETools log
[CUETools log; Date: 30.06.2013 8:12:31; Version: 2.0.9]
[CTDB TOCID: P7kJUfPXw4NKwHgIVoP.GzHrhvI-] found.
[ CTDBID ] Status
[4a100751] (2/2) Accurately ripped
[AccurateRip ID: 0008d613-00289ef2-4109af05] found.
Track [ CRC ] Status
01 [0b93b6ad] (2/2) No match but offset
02 [eef16dff] (2/2) No match but offset
03 [6807581c] (2/2) No match but offset
04 [06d4a79b] (2/2) No match but offset
05 [661cefc5] (2/2) No match but offset
Track Peak [ CRC32 ] [W/O NULL] [ LOG ]
-- 98,0 [121E2FDE] [5B21E73E]
01 98,0 [2971D36F] [97E94EAA] CRC32
02 98,0 [005E6BEC] [396E8D39] CRC32
03 98,0 [DDB64E98] [5936CDB8] CRC32
04 97,9 [E7C53FDD] [EF6FE824] CRC32
05 97,9 [08272677] [0914187B] CRC32
Any questions - support@pro-jazz.com.
Есть вопросы - support@pro-jazz.com
22:18
212
Нет комментариев. Ваш будет первым!