Вы используете незарегистрированную версию компонента "Вкладки"!

Поиск

(Modern Big Band) Thad Jones and Mel Lewis - Dedication {Remaster} - 1996, FLAC (tracks+.cue), lossless

(Modern Big Band) Thad Jones and Mel Lewis - Dedication {Remaster} - 1996, FLAC (tracks+.cue), lossless
Треклист:
Thad Jones and Mel Lewis - Dedication {Remaster}
Жанр: Modern Big Band
Дата выпуска: 1996, Delta Music
Производитель диска, страна: Laser Light 17 093
Тип: Live
Аудио кодек: FLAC
Тип рипа: (tracks + .cue)
Битрейт аудио: lossless
Включает: Full artwork, png
Источник: Моя коллекция
Риппер: Мой рип
Трэклист:
1 THE GROOVE MERCHANT
2 BIG DIPPER
3 CENTRAL PARK NORTH
4 TOW AWAY ZONE
5 QUIETUDE
6 JIVE SAMBA
7 DEDICATION
8 IT ONLY HAPPENS EVERY TIME
9 TIPTOE
10 A CHILD IS BORN
Состав:
1-6: Thad Jones (flh) • Mel Lewis (ds) • Snoolty Young (Ip) • Jimmy Nottingham (tp) • Richard Williams (tp) • Danny Moore (tp) • Eddie Bert (tb) • Jimmy Knepper (tb) • Bennie Powell (tb) * Cliff Heather (tb) • Jerome Richardson (s) • Jerry Dodigion (s) • Eddie Daniels (s) • Joe Farrell (s) • Joe Temperly (s) • Barry Galbraith (g) • Sam Brown (g) • Roland Hanna (p) • Richard Daivs (b & Fender)
7-10: Thad Jones (flh) • Mel Lewis (ds) * Snooky Young (tp) • Danny Moor (tp) • Al Porcino (tp) • Marvin Stamm (tp) • Eddie Bert (tb) * Benny Powell (tb) • Jimmy Knepper (tb) • Cliff Heather (tb) • Jerome Richardson (as & ss & fl) • Jerry Dodgion (as & fl & (!) • Eddie Daniels (ts & cl & fl) • Billy Harper (ts & fl) • Roland Hanna (p & ep) • Richard Davis (b & eb)
On selections 7 & 9 Pepper Adams is replaced by Richie Kamuca
On selection 8 Pepper Adams is replaced by Joe Farrell
On "DEDICATION" Only, French Horns: Jimmy Buffington, Earl Chopin, Dick Berg, Juiies Watkins / Tuba: Howard Johnson
Мои раздачи на треккере - jazz / fusion / prog
 
Несколько слов на английском - Hermann Lara
On a typical Monday night in Manhattan's East Village, New York's finest gather in a basement lounge just south of 11 th Ave. One by one the members stroll in with trade tools handy, ready to address the usual order of business. No, we're not talking Dragnet; we're talking music. Specifically, Monday nights at the Village Vanguard with the potent Thad Jones/Mel Lewis Jazz Orchestra.
In 1965, fluglehornist Thad Jones — who's brothers are pianist, Hank and drummer, Elvin — assembled an 18-piece band with drummer Mel Lewis for the first of many Monday nights at the Vanguard. With Jones tending to the compositions and arrangements, and drummer Lewis focusing on the ensemble's rhythmic nuances, they quickly carved a niche at this legendary jazz haven. The Monday opportunity stabilized the jazz careers of both Jones as a premiere jazz composer and Lewis as a faultless time keeper. When Thad retired from his weekly commitment in 1979, Lewis maintained the sessions for the burgeoning young arrangers and instrumentalists who call New York home. The list of impressive talent over the years has included: Billy Harper, Roland Hanna, Bob Brookmeyer, Jon Faddis, Richard Davis, Joe Lovano, and various other high caliber players. Indeed, they are New York's finest.
What you'll find on this recording is a magical representation of those intimate moments in the Village jazz basement. The ten tracks of Jones orchestrated classics, including Thad's beautiful A Child Is Born, are flawlessly interpreted. The charts find the band swinging, riffing and ultimately in a groovin' mood. All the elements which make this orchestra a New York standout: polished ensemble work, excellent arrangements and riveting improvisation, make this disc an essential compliment to any collection.
 
CD scan
 
Back scan
 
EAC log
EAC extraction logfile from 17. March 2008, 20:57 for CD
Thad Jones and Mel Lewis / Dedication
Used drive : PIONEER DVD-RW DVR-112D Adapter: 0 ID: 0
Read mode : Secure with NO C2, accurate stream, disable cache
Read offset correction : 48
Overread into Lead-In and Lead-Out : No
Used output format : C:\Program Files\FLAC\flac.exe (User Defined Encoder)
320 kBit/s
Additional command line options : -8 -V -T "ARTIST=%a" -T "TITLE=%t" -T "ALBUM=%g" -T "DATE=%y" -T "TRACKNUMBER=%n" -T "GENRE=%m" -T "COMMENT=EAC FLAC -8" %s
Other options :
Fill up missing offset samples with silence : Yes
Delete leading and trailing silent blocks : No
Installed external ASPI interface
Track 1
Filename D:\music\rip\Thad Jones and Mel Lewis - Dedication (1996) [FLAC] {Remaster}\01 - The Groove Merchant.wav
Pre-gap length 0:00:02.00
Peak level 81.7 %
Track quality 100.0 %
Test CRC 1445AB19
Copy CRC 1445AB19
Copy OK
Track 2
Filename D:\music\rip\Thad Jones and Mel Lewis - Dedication (1996) [FLAC] {Remaster}\02 - Big Dipper.wav
Pre-gap length 0:00:02.66
Peak level 92.2 %
Track quality 100.0 %
Test CRC 24C2E849
Copy CRC 24C2E849
Copy OK
Track 3
Filename D:\music\rip\Thad Jones and Mel Lewis - Dedication (1996) [FLAC] {Remaster}\03 - Central Park North.wav
Pre-gap length 0:00:03.00
Peak level 74.5 %
Track quality 100.0 %
Test CRC EBFC0472
Copy CRC EBFC0472
Copy OK
Track 4
Filename D:\music\rip\Thad Jones and Mel Lewis - Dedication (1996) [FLAC] {Remaster}\04 - Tow Away Zone.wav
Pre-gap length 0:00:03.26
Peak level 92.3 %
Track quality 100.0 %
Test CRC D40F8715
Copy CRC D40F8715
Copy OK
Track 5
Filename D:\music\rip\Thad Jones and Mel Lewis - Dedication (1996) [FLAC] {Remaster}\05 - Quietude.wav
Pre-gap length 0:00:03.33
Peak level 68.7 %
Track quality 100.0 %
Test CRC 5D4ED1B9
Copy CRC 5D4ED1B9
Copy OK
Track 6
Filename D:\music\rip\Thad Jones and Mel Lewis - Dedication (1996) [FLAC] {Remaster}\06 - Jive Samba.wav
Pre-gap length 0:00:02.93
Peak level 80.7 %
Track quality 100.0 %
Test CRC 7F3DE81E
Copy CRC 7F3DE81E
Copy OK
Track 7
Filename D:\music\rip\Thad Jones and Mel Lewis - Dedication (1996) [FLAC] {Remaster}\07 - Dedication.wav
Pre-gap length 0:00:02.96
Peak level 61.2 %
Track quality 100.0 %
Test CRC 4CFDE0F7
Copy CRC 4CFDE0F7
Copy OK
Track 8
Filename D:\music\rip\Thad Jones and Mel Lewis - Dedication (1996) [FLAC] {Remaster}\08 - It Only Happens Every Time.wav
Pre-gap length 0:00:03.80
Peak level 55.6 %
Track quality 100.0 %
Test CRC 2A08AACA
Copy CRC 2A08AACA
Copy OK
Track 9
Filename D:\music\rip\Thad Jones and Mel Lewis - Dedication (1996) [FLAC] {Remaster}\09 - Tiptoe.wav
Pre-gap length 0:00:04.49
Peak level 60.5 %
Track quality 100.0 %
Test CRC A17AEE41
Copy CRC A17AEE41
Copy OK
Track 10
Filename D:\music\rip\Thad Jones and Mel Lewis - Dedication (1996) [FLAC] {Remaster}\10 - A Child Is Born.wav
Pre-gap length 0:00:03.06
Peak level 55.0 %
Track quality 100.0 %
Test CRC 8A9DA455
Copy CRC 8A9DA455
Copy OK
No errors occured
End of status report
 
auCDtect log
894951384 55888268 01 - The Groove Merchant.wav
2662644315 64063820 02 - Big Dipper.wav
414161333 100329308 03 - Central Park North.wav
1832399694 48310124 04 - Tow Away Zone.wav
3601208083 44993804 05 - Quietude.wav
1522177797 95503004 06 - Jive Samba.wav
2322297753 55660124 07 - Dedication.wav
671171954 33245564 08 - It Only Happens Every Time.wav
1773498165 70602380 09 - Tiptoe.wav
3094274930 43493228 10 - A Child Is Born.wav
auCDtect: CD records authenticity detector, version 0.8.2
Copyright (c) 2004 Oleg Berngardt. All rights reserved.
Copyright (c) 2004 Alexander Djourik. All rights reserved.
------------------------------------------------------------
Processing file: [01 - The Groove Merchant.wav]
------------------------------------------------------------
This track looks like CDDA with probability 100%
------------------------------------------------------------
Processing file: [02 - Big Dipper.wav]
------------------------------------------------------------
This track looks like CDDA with probability 100%
------------------------------------------------------------
Processing file: [03 - Central Park North.wav]
------------------------------------------------------------
This track looks like CDDA with probability 99%
------------------------------------------------------------
Processing file: [04 - Tow Away Zone.wav]
------------------------------------------------------------
This track looks like CDDA with probability 100%
------------------------------------------------------------
Processing file: [05 - Quietude.wav]
------------------------------------------------------------
This track looks like CDDA with probability 100%
------------------------------------------------------------
Processing file: [06 - Jive Samba.wav]
------------------------------------------------------------
This track looks like CDDA with probability 100%
------------------------------------------------------------
Processing file: [07 - Dedication.wav]
------------------------------------------------------------
This track looks like CDDA with probability 100%
------------------------------------------------------------
Processing file: [08 - It Only Happens Every Time.wav]
------------------------------------------------------------
This track looks like CDDA with probability 100%
------------------------------------------------------------
Processing file: [09 - Tiptoe.wav]
------------------------------------------------------------
This track looks like CDDA with probability 99%
------------------------------------------------------------
Processing file: [10 - A Child Is Born.wav]
------------------------------------------------------------
This track looks like CDDA with probability 58%
------------------------------------------------------------
Final Conclusion:
------------------------------------------------------------
These tracks looks like CDDA with probability 100%
Я не сидирую все свои раздачи подолгу, только новые (до 3х первых сидов)
Предлагаю скачавшим максимально долго оставаться на раздаче - весь рейтинг будет ваш
Если нет сидов или раздача находится в архиве, попросите в топике или в ПМ, и я вернусь
Заботьтесь о своем рейтинге - приветствуется конвертация моих раздач в мп3 и выкладывание в соотвтствующем разделе
Any questions - support@pro-jazz.com. Есть вопросы - support@pro-jazz.com
10:19
275
Нет комментариев. Ваш будет первым!