Вы используете незарегистрированную версию компонента "Вкладки"!

Поиск

(Modern Big Band, Post-Bop) Maria Schneider Orchestra - Concert In The Garden - 2004, FLAC (tracks+.cue), lossless

(Modern Big Band, Post-Bop) Maria Schneider Orchestra - Concert In The Garden - 2004, FLAC (tracks+.cue), lossless
Треклист:
•Maria Schneider Orchestra - Concert In The Garden•
Жанр: Modern Big Band, Post-Bop
Страна-производитель диска: US
Год издания: 2004
Издатель (лейбл): ArtistShare
Номер по каталогу: 0001
Аудиокодек: FLAC (*.flac)
Тип рипа: tracks+.cue
Битрейт аудио: lossless
Продолжительность: 00:58:15
Источник (релизер): ps7sr
Наличие сканов в содержимом раздачи: да
Треклист:
01. Concert In The Garden [11:57]
02. Three Romances: Part 1 Choro Dancado [09:45]
03. Three Romances: Part 2 Pas de Deux [09:02]
04. Three Romances: Part 3 Danca Ilusoria [09:05]
05. Buleria, Solea Y Rumba [18:24]
Personnel:
Tim Ries, Charles Pillow, Rich Perry, Donny McCaslin, Scott Robinson--reeds; Tony Kadleck, Greg Gisbert, Laurie Frink, Ingrid Jensen--trumpet and fluegelhorn; Keith O'Quinn, Rock Ciccarone, Larry Farrell, Pete McGuinness--trombone; George Flynn--bass trombone and contrabass trombone; Ben Monder--guitar; Frank Kimbrough--piano; Jay Anderson--bass; Clarenece Penn--drums; Jeff Ballard--cajon and quinto cajon; Gonzalo Grau--cajon; Gary Versace--accordion; Luciana Sousa--voice, Andy Middleton--tenor sax.
 
Лог создания рипа
Exact Audio Copy V0.99 prebeta 5 from 4. May 2009
EAC extraction logfile from 28. June 2012, 0:10
Maria Schneider Orchestra / Concert In The Garden
Used drive : PLDS DVD+-RW DS-8A5SH Adapter: 6 ID: 1
Read mode : Secure
Utilize accurate stream : Yes
Defeat audio cache : Yes
Make use of C2 pointers : No
Read offset correction : 6
Overread into Lead-In and Lead-Out : No
Fill up missing offset samples with silence : Yes
Delete leading and trailing silent blocks : No
Null samples used in CRC calculations : Yes
Used interface : Native Win32 interface for Win NT & 2000
Gap handling : Appended to previous track
Used output format : User Defined Encoder
Selected bitrate : 1024 kBit/s
Quality : High
Add ID3 tag : No
Command line compressor : C:\Program Files (x86)\FLAC\flac.exe
Additional command line options : -8 -V -T "ARTIST=%a" -T "TITLE=%t" -T "ALBUM=%g" -T "DATE=%y" -T "TRACKNUMBER=%n" -T "GENRE=%m" -T "COMMENT=EAC FLAC -8" %s
TOC of the extracted CD
Track | Start | Length | Start sector | End sector
---------------------------------------------------------
1 | 0:00.00 | 11:57.27 | 0 | 53801
2 | 11:57.27 | 9:45.73 | 53802 | 97749
3 | 21:43.25 | 9:02.25 | 97750 | 138424
4 | 30:45.50 | 9:05.37 | 138425 | 179336
5 | 39:51.12 | 18:24.18 | 179337 | 262154
Track 1
Filename C:\EAC rip\maria_garden\01 - Concert In The Garden.wav
Pre-gap length 0:00:02.00
Peak level 100.0 %
Track quality 100.0 %
Test CRC A7B92AFE
Copy CRC A7B92AFE
Accurately ripped (confidence 10) [9403057A]
Copy OK
Track 2
Filename C:\EAC rip\maria_garden\02 - Three Romances- Part 1 Choro Dancado.wav
Peak level 99.6 %
Track quality 100.0 %
Test CRC 35AC1A11
Copy CRC 35AC1A11
Accurately ripped (confidence 10) [8C1ACFD2]
Copy OK
Track 3
Filename C:\EAC rip\maria_garden\03 - Three Romances- Part 2 Pas de Deux.wav
Peak level 99.5 %
Track quality 100.0 %
Test CRC F7520EBE
Copy CRC F7520EBE
Accurately ripped (confidence 10) [C258A411]
Copy OK
Track 4
Filename C:\EAC rip\maria_garden\04 - Three Romances- Part 3 Danca Ilusoria.wav
Peak level 100.0 %
Track quality 100.0 %
Test CRC 53DF671F
Copy CRC 53DF671F
Accurately ripped (confidence 10) [103D67D6]
Copy OK
Track 5
Filename C:\EAC rip\maria_garden\05 - Buleria, Solea Y Rumba.wav
Peak level 100.0 %
Track quality 100.0 %
Test CRC 5AC3A8CF
Copy CRC 5AC3A8CF
Accurately ripped (confidence 9) [9714A5D6]
Copy OK
All tracks accurately ripped
No errors occurred
End of status report
 
Содержание индексной карты (.CUE)
REM GENRE Jazz
REM DATE 2004
REM DISCID 410DA705
REM COMMENT "ExactAudioCopy v0.99pb5"
PERFORMER "Maria Schneider Orchestra"
TITLE "Concert In The Garden"
FILE "01 - Concert In The Garden.wav" WAVE
TRACK 01 AUDIO
TITLE "Concert In The Garden"
PERFORMER "Maria Schneider Orchestra"
INDEX 01 00:00:00
FILE "02 - Three Romances- Part 1 Choro Dancado.wav" WAVE
TRACK 02 AUDIO
TITLE "Three Romances: Part 1 Choro Dancado"
PERFORMER "Maria Schneider Orchestra"
INDEX 01 00:00:00
FILE "03 - Three Romances- Part 2 Pas de Deux.wav" WAVE
TRACK 03 AUDIO
TITLE "Three Romances: Part 2 Pas de Deux"
PERFORMER "Maria Schneider Orchestra"
INDEX 01 00:00:00
FILE "04 - Three Romances- Part 3 Danca Ilusoria.wav" WAVE
TRACK 04 AUDIO
TITLE "Three Romances: Part 3 Danca Ilusoria"
PERFORMER "Maria Schneider Orchestra"
INDEX 01 00:00:00
FILE "05 - Buleria, Solea Y Rumba.wav" WAVE
TRACK 05 AUDIO
TITLE "Buleria, Solea Y Rumba"
PERFORMER "Maria Schneider Orchestra"
INDEX 01 00:00:00
Any questions - support@pro-jazz.com. Есть вопросы - support@pro-jazz.com
03:49
386
Нет комментариев. Ваш будет первым!