Поиск

(Modern Big Band) [CD] Maria Schneider Orchestra - The Thompson Fields - 2015, FLAC (tracks+.cue), lossless

(Modern Big Band) [CD] Maria Schneider Orchestra - The Thompson Fields - 2015, FLAC (tracks+.cue), lossless
Треклист:
Maria Schneider Orchestra - The Thompson Fields
Жанр: Modern Big Band
Носитель: CD
Год издания: 2015
Издатель (лейбл): ArtistShare
Номер по каталогу: AS 0137
Аудиокодек: FLAC (*.flac)
Тип рипа: tracks+.cue
Битрейт аудио: lossless
Продолжительность: 77:25
Источник (релизер): ruskaval
Наличие сканов в содержимом раздачи: да
Треклист:
01. Walking By Flashlight (5:01)
02. The Monarch And The Milkweed (12:08)
03. Arbiters Of Evolution (14:00)
04. The Thompson Fields (10:00)
05. Home (7:46)
06. Nimbus (9:30)
07. A Potter's Song (5:29)
08. Lembrança (13:30)
 
 
Состав
Conductor Maria Schneider
Alto Flute, Clarinet, Flute, Saxophone Steve Wilson (saxophonist)
Alto Flute, Bass Flute, Clarinet, Flute, Saxophone Dave Pietro
Saxophone Rich Perry
Clarinet, Flute, Saxophone Donny McCaslin
Alto Clarinet, Bass Clarinet, Clarinet, Saxophone Scott Robinson
Flugelhorn, Trumpet Tony Kadleck
Flugelhorn, Trumpet Greg Gisbert
Flugelhorn, Trumpet Augie Haas
Flugelhorn, Trumpet Michael Rodriguez
Trombone Keith O'Quinn
Trombone Ryan Keberle
Trombone Marshall Gilkes
Trombone George Flynn
Accordion Gary Versace
Guitar Lage Lund
Piano Frank Kimbrough
Bass Jay Anderson
Drums, Percussion Clarence Penn
Percussion Rogerio Boccato
 
 
 
Лог создания рипа
Exact Audio Copy V1.0 beta 3 from 29. August 2011
EAC extraction logfile from 12. December 2015, 8:12
Maria Schneider / The Thompson Fields
Used drive  : SONY    DVD RW DRU-810A   Adapter: 1  ID: 0
Read mode               : Secure
Utilize accurate stream : Yes
Defeat audio cache      : Yes
Make use of C2 pointers : No
Read offset correction                      : 618
Overread into Lead-In and Lead-Out          : No
Fill up missing offset samples with silence : Yes
Delete leading and trailing silent blocks   : No
Null samples used in CRC calculations       : Yes
Used interface                              : Native Win32 interface for Win NT & 2000
Gap handling                                : Appended to previous track
Used output format              : User Defined Encoder
Selected bitrate                : 128 kBit/s
Quality                         : High
Add ID3 tag                     : No
Command line compressor         : C:\Program Files (x86)\Exact Audio Copy\Flac\flac.exe
Additional command line options : -8 -V -T "ARTIST=%artist%" -T "TITLE=%title%" -T "ALBUM=%albumtitle%" -T "DATE=%year%" -T "TRACKNUMBER=%tracknr%" -T "TOTALTRACKS=%numtracks%" -T "GENRE=%genre%" -T "ALBUMARTIST=%albumartist%" -T "ALBUM ARTIST=%albumartist%" -T "COMMENT=EAC Secure Mode, Test & Copy, AccurateRip, FLAC -8" %source%
TOC of the extracted CD
     Track |   Start  |  Length  | Start sector | End sector
    ---------------------------------------------------------
        1  |  0:00.00 |  5:01.37 |         0    |    22611
        2  |  5:01.37 | 12:07.65 |     22612    |    77201
        3  | 17:09.27 | 13:59.65 |     77202    |   140191
        4  | 31:09.17 | 10:00.25 |    140192    |   185216
        5  | 41:09.42 |  7:46.07 |    185217    |   220173
        6  | 48:55.49 |  9:29.55 |    220174    |   262903
        7  | 58:25.29 |  5:29.16 |    262904    |   287594
        8  | 63:54.45 | 13:30.33 |    287595    |   348377
Track  1
     Filename F:\New Rips\Maria Schneider - The Thompson Fields (2014) [FLAC]\01 - Walking By Flashlight.wav
     Pre-gap length  0:00:02.00
     Peak level 80.3 %
     Extraction speed 5.1 X
     Track quality 100.0 %
     Test CRC DA080287
     Copy CRC DA080287
     Accurately ripped (confidence 9)  [D13CCB80]  (AR v2)
     Copy OK
Track  2
     Filename F:\New Rips\Maria Schneider - The Thompson Fields (2014) [FLAC]\02 - The Monarch And The Milkweed.wav
     Peak level 98.5 %
     Extraction speed 6.4 X
     Track quality 100.0 %
     Test CRC 2AADCCCA
     Copy CRC 2AADCCCA
     Accurately ripped (confidence 9)  [0B7DC14C]  (AR v2)
     Copy OK
Track  3
     Filename F:\New Rips\Maria Schneider - The Thompson Fields (2014) [FLAC]\03 - Arbiters Of Evolution.wav
     Peak level 92.9 %
     Extraction speed 7.7 X
     Track quality 100.0 %
     Test CRC 503CCBE5
     Copy CRC 503CCBE5
     Accurately ripped (confidence 9)  [E1FCC308]  (AR v2)
     Copy OK
Track  4
     Filename F:\New Rips\Maria Schneider - The Thompson Fields (2014) [FLAC]\04 - The Thompson Fields.wav
     Peak level 93.7 %
     Extraction speed 8.4 X
     Track quality 100.0 %
     Test CRC A78E787B
     Copy CRC A78E787B
     Accurately ripped (confidence 9)  [BF64EFD7]  (AR v2)
     Copy OK
Track  5
     Filename F:\New Rips\Maria Schneider - The Thompson Fields (2014) [FLAC]\05 - Home.wav
     Peak level 93.3 %
     Extraction speed 8.1 X
     Track quality 99.9 %
     Test CRC 15CA0210
     Copy CRC 15CA0210
     Accurately ripped (confidence 9)  [2BBBA250]  (AR v2)
     Copy OK
Track  6
     Filename F:\New Rips\Maria Schneider - The Thompson Fields (2014) [FLAC]\06 - Nimbus.wav
     Peak level 100.0 %
     Extraction speed 8.8 X
     Track quality 99.9 %
     Test CRC AA36092B
     Copy CRC AA36092B
     Accurately ripped (confidence 9)  [F095D892]  (AR v2)
     Copy OK
Track  7
     Filename F:\New Rips\Maria Schneider - The Thompson Fields (2014) [FLAC]\07 - A Potter's Song.wav
     Peak level 92.3 %
     Extraction speed 9.5 X
     Track quality 100.0 %
     Test CRC E2DFF977
     Copy CRC E2DFF977
     Accurately ripped (confidence 9)  [F0972FF7]  (AR v2)
     Copy OK
Track  8
     Filename F:\New Rips\Maria Schneider - The Thompson Fields (2014) [FLAC]\08 - Lembranca.wav
     Peak level 94.0 %
     Extraction speed 10.0 X
     Track quality 99.9 %
     Test CRC 657D3FE5
     Copy CRC 657D3FE5
     Accurately ripped (confidence 9)  [F38E9795]  (AR v2)
     Copy OK
All tracks accurately ripped
No errors occurred
End of status report
---- CUETools DB Plugin V2.1.3
[CTDB TOCID: qSeiY7.LrL70KREdDCMYCEkOKuU-] found, Submit result: qSeiY7.LrL70KREdDCMYCEkOKuU- has been confirmed
[f937e9e0] (01/12) No match
[d5374e29] (11/12) Accurately ripped
==== Log checksum 9F4623F219E949620F122D6571296D65FC49B287EC579B820DBEC9ECA488B978 ====
 
 
Содержание индексной карты (.CUE)
REM GENRE Jazz
REM DATE 2014
REM DISCID 64122508
REM COMMENT "ExactAudioCopy v1.0b3"
PERFORMER "Maria Schneider"
TITLE "The Thompson Fields"
FILE "01 - Walking By Flashlight.flac" WAVE
  TRACK 01 AUDIO
    TITLE "Walking By Flashlight"
    PERFORMER "Maria Schneider"
    FLAGS DCP
    INDEX 01 00:00:00
FILE "02 - The Monarch And The Milkweed.flac" WAVE
  TRACK 02 AUDIO
    TITLE "The Monarch And The Milkweed"
    PERFORMER "Maria Schneider"
    FLAGS DCP
    INDEX 01 00:00:00
FILE "03 - Arbiters Of Evolution.flac" WAVE
  TRACK 03 AUDIO
    TITLE "Arbiters Of Evolution"
    PERFORMER "Maria Schneider"
    FLAGS DCP
    INDEX 01 00:00:00
FILE "04 - The Thompson Fields.flac" WAVE
  TRACK 04 AUDIO
    TITLE "The Thompson Fields"
    PERFORMER "Maria Schneider"
    FLAGS DCP
    INDEX 01 00:00:00
FILE "05 - Home.flac" WAVE
  TRACK 05 AUDIO
    TITLE "Home"
    PERFORMER "Maria Schneider"
    FLAGS DCP
    INDEX 01 00:00:00
FILE "06 - Nimbus.flac" WAVE
  TRACK 06 AUDIO
    TITLE "Nimbus"
    PERFORMER "Maria Schneider"
    FLAGS DCP
    INDEX 01 00:00:00
FILE "07 - A Potter's Song.flac" WAVE
  TRACK 07 AUDIO
    TITLE "A Potter's Song"
    PERFORMER "Maria Schneider"
    FLAGS DCP
    INDEX 01 00:00:00
FILE "08 - Lembranca.flac" WAVE
  TRACK 08 AUDIO
    TITLE "Lembranca"
    PERFORMER "Maria Schneider"
    FLAGS DCP
    INDEX 01 00:00:00
По всем вопросам пишите личное сообщение пользователю M0p94ok.
04:05
333
Нет комментариев. Ваш будет первым!