Поиск

(Modal jazz) [CD] Menagerie (Roy Ayers) - They Shall Inherit - 2010, FLAC (tracks+.cue), lossless

(Modal jazz) [CD] Menagerie (Roy Ayers) - They Shall Inherit - 2010, FLAC (tracks+.cue), lossless
Menagerie / They Shall Inherit
Жанр: Modal jazz
Носитель: CD
Страна-производитель диска (релиза): UK
Год издания: 2010
Издатель (лейбл): Tru Thoughts
Номер по каталогу: TRULP263
Страна исполнителя (группы): Australia
Аудиокодек: FLAC (*.flac)
Тип рипа: tracks+.cue
Битрейт аудио: lossless
Продолжительность: 00:44:00
Источник (релизер): what.cd, evensteven
Наличие сканов в содержимом раздачи: нет
Треклист:
1. They Shall Inherit
2. The Chosen
3. Jamahlia
4. Leroy And The Lion
5. The Quietening
6. There Will Come Soft Rains
 
Лог создания рипа
Exact Audio Copy V1.0 beta 3 from 29. August 2011
EAC extraction logfile from 18. November 2012, 11:35
Menagerie / They Shall Inherit
Used drive : PLEXTOR CD-R PREMIUM Adapter: 5 ID: 0
Read mode : Secure
Utilize accurate stream : Yes
Defeat audio cache : Yes
Make use of C2 pointers : No
Read offset correction : 30
Overread into Lead-In and Lead-Out : Yes
Fill up missing offset samples with silence : Yes
Delete leading and trailing silent blocks : No
Null samples used in CRC calculations : Yes
Used interface : Installed external ASPI interface
Gap handling : Appended to previous track
Used output format : User Defined Encoder
Selected bitrate : 1024 kBit/s
Quality : High
Add ID3 tag : No
Command line compressor : C:\Program Files\Exact Audio Copy\Flac\flac.exe
Additional command line options : -8 -V -T "ARTIST=%artist%" -T "TITLE=%title%" -T "ALBUM=%albumtitle%" -T "DATE=%year%" -T "TRACKNUMBER=%tracknr%" -T "GENRE=%genre%" -T "PERFORMER=%albuminterpret%" -T "COMPOSER=%composer%" %haslyrics%--tag-from-file=LYRICS="%lyricsfile%"%haslyrics% -T "ALBUMARTIST=%albumartist%" -T "ALBUM ARTIST=%albumartist%" -T "DISCNUMBER=%cdnumber%" -T "TOTALDISCS=%totalcds%" -T "TOTALTRACKS=%numtracks%" -T "COMMENT=%comment%" %source% -o %dest%
TOC of the extracted CD
Track | Start | Length | Start sector | End sector
---------------------------------------------------------
1 | 0:00.00 | 11:57.39 | 0 | 53813
2 | 11:57.39 | 6:09.17 | 53814 | 81505
3 | 18:06.56 | 6:23.22 | 81506 | 110252
4 | 24:30.03 | 7:28.43 | 110253 | 143895
5 | 31:58.46 | 4:44.22 | 143896 | 165217
6 | 36:42.68 | 7:30.39 | 165218 | 199006
Track 1
Filename C:\EACRips\01 They Shall Inherit.wav
Pre-gap length 0:00:02.00
Peak level 99.9 %
Extraction speed 9.6 X
Track quality 100.0 %
Test CRC 2BA13231
Copy CRC 2BA13231
Track not present in AccurateRip database
Copy OK
Track 2
Filename C:\EACRips\02 The Chosen.wav
Pre-gap length 0:00:01.98
Peak level 99.9 %
Extraction speed 11.3 X
Track quality 100.0 %
Test CRC EFA41F02
Copy CRC EFA41F02
Track not present in AccurateRip database
Copy OK
Track 3
Filename C:\EACRips\03 Jamahlia.wav
Pre-gap length 0:00:01.88
Peak level 99.9 %
Extraction speed 12.3 X
Track quality 100.0 %
Test CRC E2A71B3B
Copy CRC E2A71B3B
Track not present in AccurateRip database
Copy OK
Track 4
Filename C:\EACRips\04 Leroy And The Lion.wav
Pre-gap length 0:00:02.50
Peak level 99.9 %
Extraction speed 7.8 X
Track quality 100.0 %
Test CRC 60342FAA
Copy CRC 60342FAA
Track not present in AccurateRip database
Copy OK
Track 5
Filename C:\EACRips\05 The Quietening.wav
Pre-gap length 0:00:02.17
Peak level 99.9 %
Extraction speed 3.3 X
Track quality 100.0 %
Test CRC 3320D667
Copy CRC 3320D667
Track not present in AccurateRip database
Copy OK
Track 6
Filename C:\EACRips\06 There Will Come Soft Rains.wav
Pre-gap length 0:00:03.42
Peak level 99.9 %
Extraction speed 7.1 X
Track quality 99.9 %
Test CRC 053D40EF
Copy CRC 053D40EF
Track not present in AccurateRip database
Copy OK
None of the tracks are present in the AccurateRip database
No errors occurred
End of status report
---- CUETools DB Plugin V2.1.3
[CTDB TOCID: xNOj67pG1HgtjZReNJPnQXw8Vpk-] disk not present in database, Submit result: xNOj67pG1HgtjZReNJPnQXw8Vpk- has been uploaded
==== Log checksum B6F651836D48E7810A2F5F57055C8671415816E769788F66904C33B96BBDD9CF ====
 
Содержание индексной карты (.CUE)
REM GENRE Alternative
REM DATE 2012
REM DISCID 460A5D06
REM COMMENT "ExactAudioCopy v1.0b3"
CATALOG 5060205153661
PERFORMER "Menagerie"
TITLE "They Shall Inherit"
FILE "01 They Shall Inherit.wav" WAVE
TRACK 01 AUDIO
TITLE "They Shall Inherit"
PERFORMER "Menagerie"
ISRC GBEUE1200253
INDEX 01 00:00:00
TRACK 02 AUDIO
TITLE "The Chosen"
PERFORMER "Menagerie"
ISRC GBEUE1200254
INDEX 00 11:55:40
FILE "02 The Chosen.wav" WAVE
INDEX 01 00:00:00
TRACK 03 AUDIO
TITLE "Jamahlia"
PERFORMER "Menagerie"
ISRC GBEUE1200255
INDEX 00 06:07:26
FILE "03 Jamahlia.wav" WAVE
INDEX 01 00:00:00
TRACK 04 AUDIO
TITLE "Leroy And The Lion"
PERFORMER "Menagerie"
ISRC GBEUE1200256
INDEX 00 06:20:59
FILE "04 Leroy And The Lion.wav" WAVE
INDEX 01 00:00:00
TRACK 05 AUDIO
TITLE "The Quietening"
PERFORMER "Menagerie"
ISRC GBEUE1200257
INDEX 00 07:26:30
FILE "05 The Quietening.wav" WAVE
INDEX 01 00:00:00
TRACK 06 AUDIO
TITLE "There Will Come Soft Rains"
PERFORMER "Menagerie"
ISRC GBEUE1200258
INDEX 00 04:40:65
FILE "06 There Will Come Soft Rains.wav" WAVE
INDEX 01 00:00:00
 
Лог проверки качества
Started at: iiiaaaeuiee, 07. 11. 2016. - 13:29.34
6 files found
1 -===- D:\01. Music\01. torrent\02. New folder\Menagerie - They Shall Inherit (2012)_flac\01 They Shall Inherit.flac
Extracted successfully
Conclusion: this track is CDDA with probability 99%
Tempfile successfully deleted.
2 -===- D:\01. Music\01. torrent\02. New folder\Menagerie - They Shall Inherit (2012)_flac\02 The Chosen.flac
Extracted successfully
Conclusion: this track is CDDA with probability 100%
Tempfile successfully deleted.
3 -===- D:\01. Music\01. torrent\02. New folder\Menagerie - They Shall Inherit (2012)_flac\03 Jamahlia.flac
Extracted successfully
Conclusion: this track is CDDA with probability 100%
Tempfile successfully deleted.
4 -===- D:\01. Music\01. torrent\02. New folder\Menagerie - They Shall Inherit (2012)_flac\04 Leroy And The Lion.flac
Extracted successfully
Conclusion: this track is CDDA with probability 99%
Tempfile successfully deleted.
5 -===- D:\01. Music\01. torrent\02. New folder\Menagerie - They Shall Inherit (2012)_flac\05 The Quietening.flac
Extracted successfully
Conclusion: this track is CDDA with probability 100%
Tempfile successfully deleted.
6 -===- D:\01. Music\01. torrent\02. New folder\Menagerie - They Shall Inherit (2012)_flac\06 There Will Come Soft Rains.flac
Extracted successfully
Conclusion: this track is CDDA with probability 100%
Tempfile successfully deleted.
Finished at: iiiaaaeuiee, 07. 11. 2016. - 13:34.02 (operation time: 0:04.27)
 
Состав
Michael Meagher - bass
Rory McDougall - drums
Carlo Barbaro - flute
Lance Ferguson - guitar
Phil Binotto - percussion
Mark Fitzgibbon - piano
Phil Noy - soprano & tenor saxophone
Eamon McNelis - trumpet
Roy Ayers - vibraphone (tracks: Leroy And The Lion)
Christin Deralas, Fallon Williams, Lance Ferguson - vocals
22:30
557
Нет комментариев. Ваш будет первым!