Поиск

(Meditative, Contemporary Jazz) Dhafer Youssef - Electric Sufy - 2001, FLAC (image+.cue), lossless

Стили:
Треклист:
Dhafer Youssef - Electric Sufy
Жанр: Meditative, Contemporary Jazz
Год выпуска диска: 2001
Производитель диска: Австрия
Аудио кодек: FLAC
Тип рипа: image+.cue
Битрейт аудио: lossless
Продолжительность: 01:07:23
Трэклист:
1 MANDAHINI 5:07
2. YABAY 3:14
3. ELECTRIC SUFI 4:56
4. OIL ON WATER 2:43
5. LA PRIERE DE L'ABSENT 6:43
6. MAN ON WOOL 7:03
7. LA NUIT SACREE 6:23
8. NOUBA 6:46
9. FARHA 5:34
10.NAFHA 5:24
11.AL-HALLAJ 3"18
12.SURAJ 6:13
13.LANGUE MUETTE 3"33
Доп. информация: О исполнителе и альбоме можно прочитать здесь http://krugi.clan.su/publ/15-1-0-37
 
скрытый текст
N.B. Отключения кэша аудио: Нет, потому, что отключать нечего!
Exact Audio Copy V0.99 prebeta 3 from 28. July 2007
Отчёт EAC об извлечении, выполненном 19. февраля 2008, 3:30
DHAFER YOUSSEF / ELECTRIC SUFI
Дисковод: Optiarc DVD RW AD-7170S Adapter: 2 ID: 0
Режим чтения : Достоверность
Использование точного потока : Да
Отключение кэша аудио : Нет
Использование указателей C2 : Да
Коррекция смещения при чтении : 48
Способность читать области Lead-in и Lead-out : Нет
Заполнение пропущенных сэмплов тишиной : Да
Удаление блоков с тишиной в начале и конце : Нет
При вычислениях CRC использовались нулевые сэмплы : Нет
Интерфейс : Встроенный Win32-интерфейс для Win NT/2000
Выходной формат : Пользовательский кодировщик
Выбранный битрейт : 1024 kBit/s
Качество : Высокий
Добавление ID3-тэга : Нет
Утилита сжатия : C:\Program Files\Exact Audio Copy\FLAC\FLAC.EXE
Дополнительные параметры : -6 -V -T "ARTIST=%a" -T "TITLE=%t" -T "ALBUM=%g" -T "DATE=%y" -T "TRACKNUMBER=%n" -T "GENRE=%m" -T "COMMENT=%e" %s -o %d
TOC извлечённого CD
Трек | Старт | Длительность | Начальный сектор | Конечный сектор
---------------------------------------------------------------------
1 | 0:00.00 | 5:09.20 | 0 | 23194
2 | 5:09.20 | 3:16.58 | 23195 | 37952
3 | 8:26.03 | 4:56.71 | 37953 | 60223
4 | 13:22.74 | 2:45.47 | 60224 | 72645
5 | 16:08.46 | 6:44.28 | 72646 | 102973
6 | 22:52.74 | 7:04.59 | 102974 | 134832
7 | 29:57.58 | 6:26.07 | 134833 | 163789
8 | 36:23.65 | 6:47.18 | 163790 | 194332
9 | 43:11.08 | 5:35.53 | 194333 | 219510
10 | 48:46.61 | 5:26.20 | 219511 | 243980
11 | 54:13.06 | 3:20.29 | 243981 | 259009
12 | 57:33.35 | 6:16.41 | 259010 | 287250
13 | 63:50.01 | 3:33.42 | 287251 | 303267
Характеристики диапазона извлечения и сообщения об ошибках
Выбранный диапазон
Имя файла E:\GENE2\DHAFER YOUSSEF - ELECTRIC SUFI.wav
Пиковый уровень 95.9 %
Качество диапазона 100.0 %
CRC копии CB05EB2B
Копирование... OK
Ошибок не произошло
AccurateRip: сводка
Трек 1 точное извлечение (доверие 1) [AE4BE28C]
Трек 2 точное извлечение (доверие 1) [9CB8E15A]
Трек 3 точное извлечение (доверие 1) [E53F5A8E]
Трек 4 точное извлечение (доверие 1) [A0B8C39D]
Трек 5 точное извлечение (доверие 1) [46FE878F]
Трек 6 точное извлечение (доверие 1) [DFBA7E5A]
Трек 7 точное извлечение (доверие 1) [3BA851C6]
Трек 8 точное извлечение (доверие 1) [9BE1348D]
Трек 9 точное извлечение (доверие 1) [36B96D3C]
Трек 10 точное извлечение (доверие 1) [EC705225]
Трек 11 точное извлечение (доверие 1) [24D58F56]
Трек 12 точное извлечение (доверие 1) [9F2CFE31]
Трек 13 точное извлечение (доверие 1) [1890471F]
Все треки извлечены точно
Конец отчёта
02:48
353
Нет комментариев. Ваш будет первым!