Поиск

(Mainstream Jazz, Smooth Jazz, Big Band, Soul Note) [CD] Fabio Jegher (feat. Tom Scott, John Patitucci, Dave Weckl) - Life Tones And Film Colors - 2006, FLAC (tracks+.cue), lossless

(Mainstream Jazz, Smooth Jazz, Big Band, Soul Note) [CD] Fabio Jegher (feat. Tom Scott, John Patitucci, Dave Weckl) - Life Tones And Film Colors - 2006, FLAC (tracks+.cue), lossless
Треклист:
Fabio Jegher / Life Tones And Film Colors
Жанр: Mainstream Jazz, Smooth Jazz, Big Band, Soul Note
Носитель: CD
Страна-производитель диска: Italy
Год издания: 2006
Издатель (лейбл): Soul Note
Номер по каталогу: 121347-2
Страна исполнителя (группы): Italy
Аудиокодек: FLAC (*.flac)
Тип рипа: tracks+.cue
Битрейт аудио: lossless
Продолжительность: 40:55
Источник (релизер): свой фирменный диск
Наличие сканов в содержимом раздачи:
Треклист:
1. Windy Tones And Love In Trieste 6:04
2. Oriental Promenade 6:59
3. Hollywood Sky 4:14
4. The Wind Car 4:26
5. Some Circular Waves On The Lake 3:21
6. Lights Of A Dream 2:44
7. Costa Rej 13:01
 
Лог создания рипа
Exact Audio Copy V1.0 beta 3 from 29. August 2011
EAC extraction logfile from 12. August 2014, 0:00
Fabio Jegher / Life Tones And Film Colors
Used drive : PIONEER DVD-RW DVR-115D Adapter: 0 ID: 0
Read mode : Secure
Utilize accurate stream : Yes
Defeat audio cache : Yes
Make use of C2 pointers : No
Read offset correction : 48
Overread into Lead-In and Lead-Out : No
Fill up missing offset samples with silence : Yes
Delete leading and trailing silent blocks : No
Null samples used in CRC calculations : Yes
Used interface : Installed external ASPI interface
Gap handling : Appended to previous track
Used output format : User Defined Encoder
Selected bitrate : 896 kBit/s
Quality : High
Add ID3 tag : No
Command line compressor : C:\Program Files\Exact Audio Copy\FLAC\FLAC.EXE
Additional command line options : -6 -V -T "ARTIST=%artist%" -T "TITLE=%title%" -T "ALBUM=%albumtitle%" -T "DATE=%year%" -T "TRACKNUMBER=%tracknr%" -T "GENRE=%genre%" -T "COMMENT=%comment%" -T "BAND=%albuminterpret%" -T "COMPOSER=%composer%" %haslyrics%--tag-from-file=LYRICS="%lyricsfile%"%haslyrics% -T "DISCNUMBER=%cdnumber%" -T "TOTALDISCS=%totalcds%" -T "TOTALTRACKS=%numtracks%" %hascover%--picture="%coverfile%"%hascover% %source% -o %dest%
TOC of the extracted CD
Track | Start | Length | Start sector | End sector
---------------------------------------------------------
1 | 0:00.00 | 6:05.28 | 0 | 27402
2 | 6:05.28 | 6:59.15 | 27403 | 58842
3 | 13:04.43 | 4:14.48 | 58843 | 77940
4 | 17:19.16 | 4:26.58 | 77941 | 97948
5 | 21:45.74 | 3:21.23 | 97949 | 113046
6 | 25:07.22 | 2:44.30 | 113047 | 125376
7 | 27:51.52 | 13:03.05 | 125377 | 184106
Track 1
Filename D:\zzz\01 - Windy Tones And Love In Trieste.wav
Pre-gap length 0:00:02.00
Peak level 97.7 %
Extraction speed 5.1 X
Track quality 100.0 %
Test CRC 2FC7399E
Copy CRC 2FC7399E
Track not present in AccurateRip database
Copy OK
Track 2
Filename D:\zzz\02 - Oriental Promenade.wav
Peak level 97.7 %
Extraction speed 5.8 X
Track quality 100.0 %
Test CRC C6C09484
Copy CRC C6C09484
Track not present in AccurateRip database
Copy OK
Track 3
Filename D:\zzz\03 - Hollywood Sky.wav
Peak level 97.7 %
Extraction speed 5.4 X
Track quality 99.9 %
Test CRC D90B141F
Copy CRC D90B141F
Track not present in AccurateRip database
Copy OK
Track 4
Filename D:\zzz\04 - The Wind Car.wav
Peak level 97.7 %
Extraction speed 6.4 X
Track quality 100.0 %
Test CRC 73658A76
Copy CRC 73658A76
Track not present in AccurateRip database
Copy OK
Track 5
Filename D:\zzz\05 - Some Circular Waves On The Lake.wav
Peak level 97.7 %
Extraction speed 6.4 X
Track quality 100.0 %
Test CRC 4501E9B2
Copy CRC 4501E9B2
Track not present in AccurateRip database
Copy OK
Track 6
Filename D:\zzz\06 - Lights Of A Dream.wav
Peak level 97.7 %
Extraction speed 6.5 X
Track quality 100.0 %
Test CRC 389318B6
Copy CRC 389318B6
Track not present in AccurateRip database
Copy OK
Track 7
Filename D:\zzz\07 - Costa Rej.wav
Peak level 97.7 %
Extraction speed 8.1 X
Track quality 100.0 %
Test CRC D74807B0
Copy CRC D74807B0
Track not present in AccurateRip database
Copy OK
None of the tracks are present in the AccurateRip database
No errors occurred
End of status report
==== Log checksum 2321F1422709825E4AC83D67ADA8C53F757658C6CFE7EF2CA82A884E4217A0BC ====
 
Содержание индексной карты (.CUE)
REM GENRE "Smooth Jazz"
REM DATE 2006
REM DISCID 58099607
REM COMMENT "ExactAudioCopy v1.0b3"
PERFORMER "Fabio Jegher"
TITLE "Life Tones And Film Colors"
FILE "01 - Windy Tones And Love In Trieste.wav" WAVE
TRACK 01 AUDIO
TITLE "Windy Tones And Love In Trieste"
PERFORMER "Fabio Jegher"
FLAGS DCP
INDEX 01 00:00:00
FILE "02 - Oriental Promenade.wav" WAVE
TRACK 02 AUDIO
TITLE "Oriental Promenade"
PERFORMER "Fabio Jegher"
FLAGS DCP
INDEX 01 00:00:00
FILE "03 - Hollywood Sky.wav" WAVE
TRACK 03 AUDIO
TITLE "Hollywood Sky"
PERFORMER "Fabio Jegher"
FLAGS DCP
INDEX 01 00:00:00
FILE "04 - The Wind Car.wav" WAVE
TRACK 04 AUDIO
TITLE "The Wind Car"
PERFORMER "Fabio Jegher"
FLAGS DCP
INDEX 01 00:00:00
FILE "05 - Some Circular Waves On The Lake.wav" WAVE
TRACK 05 AUDIO
TITLE "Some Circular Waves On The Lake"
PERFORMER "Fabio Jegher"
FLAGS DCP
INDEX 01 00:00:00
FILE "06 - Lights Of A Dream.wav" WAVE
TRACK 06 AUDIO
TITLE "Lights Of A Dream"
PERFORMER "Fabio Jegher"
FLAGS DCP
INDEX 01 00:00:00
FILE "07 - Costa Rej.wav" WAVE
TRACK 07 AUDIO
TITLE "Costa Rej"
PERFORMER "Fabio Jegher"
FLAGS DCP
INDEX 01 00:00:00
 
Лог проверки качества
d:\>d:\aucdtect -d/-m0 d:\zzz\*.wav
auCDtect: CD records authenticity detector, version 0.8.2
Copyright (c) 2004 Oleg Berngardt. All rights reserved.
Copyright (c) 2004 Alexander Djourik. All rights reserved.
------------------------------------------------------------
Processing file: [01. Windy Tones And Love In Trieste.wav]
------------------------------------------------------------
This track looks like CDDA with probability 100%
------------------------------------------------------------
Processing file: [02. Oriental Promenade.wav]
------------------------------------------------------------
This track looks like CDDA with probability 100%
------------------------------------------------------------
Processing file: [03. Hollywood Sky.wav]
------------------------------------------------------------
This track looks like CDDA with probability 100%
------------------------------------------------------------
Processing file: [04. The Wind Car.wav]
------------------------------------------------------------
This track looks like CDDA with probability 100%
------------------------------------------------------------
Processing file: [05. Some Circular Waves On The Lake.wav]
------------------------------------------------------------
This track looks like CDDA with probability 99%
------------------------------------------------------------
Processing file: [06. Lights Of A Dream.wav]
------------------------------------------------------------
This track looks like CDDA with probability 100%
------------------------------------------------------------
Processing file: [07. Costa Rej.wav]
------------------------------------------------------------
This track looks like CDDA with probability 100%
------------------------------------------------------------
Final Conclusion:
------------------------------------------------------------
These tracks looks like CDDA with probability 100%
Доп. информация:
 
Album Info
All compositions by Fabio Jegher
Arranged and produced by Jorge Calandrelli (with the exception of 7.)
Recorded on September 2004 at O'Henry Studios, Los Angeles
Engineer: Mauricio Guerrero
Mixed at Bear Valley Springs, CA
Engineers: Greg Bartheld, Fabio Jegher & Jorge Calandrelli
Mastered at Bear Valley Springs, CA
Engineer: Greg Bartheld
Costa Rej:
Composed and arranged by Fabio Jegher
Produced and directed by Tom Scott
Recorded on September 1994 at Mad Hatter Studios, Los Angeles
Engineer: Bruce Barros
Mixed at Mad Hatter Studios, Los Angeles
Engineers: Tom Scott and Bruce Barros
Executive producer: Flavio Bonandrini
Cover pictures: Stefano Grasso
Cover design: Daniela Giraldi
Liner notes: Fabio Jegher, Gunther Schuller (London, August 2005)
 
Состав
Jorge Calandrelli: acoustic & electric piano (1-6)
Tom Scott: saxes (1-6), piccolo / c flute / g flute / Bb bass clarinet / soprano sax / tenor sax / synthesizers (7)
Dave Carpenter: electric & acoustic bass (1-6)
William Kennedy: drums (1-6)
Larry Bunker: vibraphone / percussion (7)
Mike Fisher: congas (7)
John Patitucci: electric bass (7)
Dave Weckl: drums (7)
Приватный:
Нет (DHT включён)
Размер:
247.92 Мб (259,966,554 байт) » файлов: 14
Участники:
0 раздают, 1 качают (1 участников всего)
Внешние участники:
7 раздают, 2 качают (9 участников всего) [ Обновить ]
Скорость:
144.58 Кб/c 0/c
For power users only: no seeders - write to support@pro-jazz.com. Для power user: нет сидеров - пишите на support@pro-jazz.com.
12:00
116
Нет комментариев. Ваш будет первым!