Вы используете незарегистрированную версию компонента "Вкладки"!

Поиск

(Mainstream Jazz) Lester Young & Harry Edison - Pres & Sweets - 1955, APE (image+.cue), lossless

(Mainstream Jazz) Lester Young & Harry Edison - Pres & Sweets - 1955, APE (image+.cue), lossless
Треклист:
Lester Young & Harry Edison - Pres & Sweets
Жанр: Mainstream Jazz
Год выпуска диска: 1955
Производитель диска: USA
Аудио кодек: APE
Тип рипа: image+.cue
Битрейт аудио: lossless
Продолжительность: 47:48

Трэклист:
01 Mean to Me
02 Red Boy Blues
03 Pennies From Heaven
04 That's All
05 One O'Clock Jump
06 She's Funny That Way
07 It's the Talk of the Town
08 I Found a New Baby
 
EAC
Exact Audio Copy V0.99 prebeta 4 from 23. January 2008
Отчёт EAC об извлечении, выполненном 12. июня 2009, 21:34
Lester Young & Harry Edison / Pres & Sweets
Дисковод: ASUS DRW-20B1LT Adapter: 2 ID: 0
Режим чтения : Достоверность
Использование точного потока : Да
Отключение кэша аудио : Да
Использование указателей C2 : Нет
Коррекция смещения при чтении : 6
Способность читать области Lead-in и Lead-out : Нет
Заполнение пропущенных сэмплов тишиной : Да
Удаление блоков с тишиной в начале и конце : Нет
При вычислениях CRC использовались нулевые сэмплы : Да
Интерфейс : Встроенный Win32-интерфейс для Win NT/2000
Выходной формат : Внутренние WAV-операции
Формат сэмплов : 44.100 Гц; 16 бит; стерео
TOC извлечённого CD
Трек | Старт | Длительность | Начальный сектор | Конечный сектор
---------------------------------------------------------------------
1 | 0:00.33 | 7:17.12 | 33 | 32819
2 | 7:17.45 | 5:15.00 | 32820 | 56444
3 | 12:32.45 | 5:17.63 | 56445 | 80282
4 | 17:50.33 | 4:38.12 | 80283 | 101144
5 | 22:28.45 | 5:21.25 | 101145 | 125244
6 | 27:49.70 | 8:27.25 | 125245 | 163294
7 | 36:17.20 | 5:39.50 | 163295 | 188769
8 | 41:56.70 | 5:52.13 | 188770 | 215182
Характеристики диапазона извлечения и сообщения об ошибках
Выбранный диапазон
Имя файла D:\Lossless\Lester Young & Harry Edison - Pres & Sweets\Lester Young & Harry Edison - Pres & Sweets.wav
Пиковый уровень 89.1 %
Качество диапазона 99.9 %
CRC копии A0FABAD8
Копирование... OK
Ошибок не произошло
Конец отчёта
Any questions - support@pro-jazz.com.
Есть вопросы - support@pro-jazz.com
09:24
242
Нет комментариев. Ваш будет первым!