Поиск

(Mainstream Jazz) Lester Young [2CD] - The Jazz Giants / Blue Lester, APE (image+.cue), lossless

(Mainstream Jazz) Lester Young [2CD] - The Jazz Giants / Blue Lester, APE (image+.cue), lossless
Треклист:
Lester Young - The Jazz Giants
Жанр: Mainstream Jazz
Год выпуска диска: 1956
Аудио кодек: APE
Тип рипа: image+.cue
Битрейт аудио: lossless
Продолжительность: 42:15
Лейбл: Verve
Трэклист:
1 I Guess I'll Have to Change My Plan
2 I Didn't Know What Time It Was
3 Gigantic Blues
4 This Year's Kisses
5 You Can Depend on Me
Музыканты:
Lester Young, tenor sax
Roy Eldridge, trumpet
Vic Dickenson, trombone
Teddy Wilson, piano
Freddie Green, guitar
Gene Ramey, bass
Jo Jones, drums
Recorded at Fine Sound in New York January 12, 1956
 
Отчёт EAC
Exact Audio Copy V0.99 prebeta 4 from 23. January 2008
Отчёт EAC об извлечении, выполненном 2. мая 2009, 2:13
Lester Young / The Jazz Giants
Дисковод: Optiarc DVD RW AD-7200A Adapter: 3 ID: 1
Режим чтения : Достоверность
Использование точного потока : Да
Отключение кэша аудио : Да
Использование указателей C2 : Нет
Коррекция смещения при чтении : 48
Способность читать области Lead-in и Lead-out : Нет
Заполнение пропущенных сэмплов тишиной : Да
Удаление блоков с тишиной в начале и конце : Нет
При вычислениях CRC использовались нулевые сэмплы : Да
Интерфейс : Установленный внешний ASPI-интерфейс
Выходной формат : Внутренние WAV-операции
Формат сэмплов : 44.100 Гц; 16 бит; стерео
TOC извлечённого CD
Трек | Старт | Длительность | Начальный сектор | Конечный сектор
---------------------------------------------------------------------
1 | 0:00.00 | 9:33.13 | 0 | 42987
2 | 9:33.13 | 10:04.02 | 42988 | 88289
3 | 19:37.15 | 6:52.15 | 88290 | 119204
4 | 26:29.30 | 6:47.30 | 119205 | 149759
5 | 33:16.60 | 9:04.45 | 149760 | 190604
Характеристики диапазона извлечения и сообщения об ошибках
Выбранный диапазон
Имя файла E:\Up-Down\Lester Young\Lester Young - The Jazz Giants\Lester Young - The Jazz Giants.wav
Пиковый уровень 84.8 %
Качество диапазона 100.0 %
CRC копии BFEBC869
Копирование... OK
Ошибок не произошло
Конец отчёта
Lester Young - Blue Lester
Жанр: Mainstream Jazz
Год выпуска диска: 2002
Аудио кодек: APE
Тип рипа: image+.cue
Битрейт аудио: lossless
Продолжительность: 71:54
Лейбл: Dreyfus
Трэклист:
1 The Man I Love
2 These Foolish Things
3 Jump Lester Jump
4 Polka Dots and Moonbeams
5 Too Marvellous for Words
6 She's Funny That Way
7 Just You, Just Me
8 (I Don't Stand A) Ghost of a Chance (With You)
9 I Never Knew
10 Blue Lester
11 Lester Leaps Again
12 Peg O'My Heart
13 I Got Rhythm
14 Back to the Land
15 I Want to Be Happy
16 I'm Confessin' (That I Love You)
17 Indiana (Back Home Again in Indiana)
18 I Can't Get Started (With You)
19 Body and Soul
Музыканты:
Lester Young - tenor sax
Bill Coleman - trumpet(13)
Dicky Wells - trombone(13)
Freddie Green(2,3,8,10,11), Irvin Ashby(6), Nasil Brakaat(16) - guitar
Nat King Cole(1,12,14,15,17-19), Dodo Marmarosa(2), Count Basie(3,8,10,11), Hank Jones(4,5), Joe Albany(6), Johny Guarnieri(7,9), Joe Bushkin(13), Sadik Hakim(16) - piano
Red Callender(2,6,17-19), Rodney Richardson(3,8,10,11,), Ray Brown(4,5), Slam Stewart(7,9), John Simmons(13) - bass
Buddy Rich(1,4,5,14,15), Henry "Tucker" Green(2), Shadow Wilson(3,8,10), Chico Hamilton(6), Sidney Catlett(7,9), Jo Jones(11,13), Lyndell Marshall(16) - drums
Recorded 1942-1949
 
Отчёт EAC
Exact Audio Copy V0.99 prebeta 4 from 23. January 2008
Отчёт EAC об извлечении, выполненном 2. мая 2009, 0:55
Lester Young / Blue Lester
Дисковод: Optiarc DVD RW AD-7200A Adapter: 3 ID: 1
Режим чтения : Достоверность
Использование точного потока : Да
Отключение кэша аудио : Да
Использование указателей C2 : Нет
Коррекция смещения при чтении : 48
Способность читать области Lead-in и Lead-out : Нет
Заполнение пропущенных сэмплов тишиной : Да
Удаление блоков с тишиной в начале и конце : Нет
При вычислениях CRC использовались нулевые сэмплы : Да
Интерфейс : Установленный внешний ASPI-интерфейс
Выходной формат : Внутренние WAV-операции
Формат сэмплов : 44.100 Гц; 16 бит; стерео
TOC извлечённого CD
Трек | Старт | Длительность | Начальный сектор | Конечный сектор
---------------------------------------------------------------------
1 | 0:00.00 | 4:47.32 | 0 | 21556
2 | 4:47.32 | 3:09.20 | 21557 | 35751
3 | 7:56.52 | 3:16.52 | 35752 | 50503
4 | 11:13.29 | 3:36.12 | 50504 | 66715
5 | 14:49.41 | 2:57.71 | 66716 | 80061
6 | 17:47.37 | 3:18.48 | 80062 | 94959
7 | 21:06.10 | 3:08.70 | 94960 | 109129
8 | 24:15.05 | 3:28.05 | 109130 | 124734
9 | 27:43.10 | 3:08.27 | 124735 | 138861
10 | 30:51.37 | 3:22.63 | 138862 | 154074
11 | 34:14.25 | 4:24.47 | 154075 | 173921
12 | 38:38.72 | 4:01.47 | 173922 | 192043
13 | 42:40.44 | 4:08.35 | 192044 | 210678
14 | 46:49.04 | 3:51.09 | 210679 | 228012
15 | 50:40.13 | 3:56.32 | 228013 | 245744
16 | 54:36.45 | 2:29.37 | 245745 | 256956
17 | 57:06.07 | 4:51.42 | 256957 | 278823
18 | 61:57.49 | 4:53.21 | 278824 | 300819
19 | 66:50.70 | 5:03.58 | 300820 | 323602
Характеристики диапазона извлечения и сообщения об ошибках
Выбранный диапазон
Имя файла E:\Up-Down\Lester Young\Lester Young - Blue Lester\Lester Young - Blue Lester.wav
Пиковый уровень 98.6 %
Качество диапазона 100.0 %
CRC копии 6E242A9C
Копирование... OK
Ошибок не произошло
Конец отчёта
Download available for power users only.
07:40
372
Нет комментариев. Ваш будет первым!