Поиск

(Mainstream Jazz, Cool) Bobby Jaspar featuring Mundell Lowe and Rene Thomas - With Friends {1958-1962} - 1991, FLAC (tracks+.cue), lossless

(Mainstream Jazz, Cool) Bobby Jaspar featuring Mundell Lowe and Rene Thomas - With Friends {1958-1962} - 1991, FLAC (tracks+.cue), lossless
Треклист:
♦ Bobby Jaspar featuring Mundell Lowe and Rene Thomas - With Friends {1958-1962} ♦
Жанр: Mainstream Jazz, Cool
Страна-производитель диска: Switzerland
Год издания: 1991
Издатель (лейбл): Fresh Sound / Camarillo Music
Номер по каталогу: FSRCD-166
Аудиокодек: FLAC (*.flac)
Тип рипа: tracks+.cue
Битрейт аудио: lossless
Продолжительность: 00:54:43
Источник (релизер): Рип с диска.
Наличие сканов в содержимом раздачи: да
Треклист:
01. It Could Happen to You [08:08]
02. Gal in Calico [08:20]
03. Stuffy [02:45]
04. Waltz for Debbie [03:46]
05. My Fair Lady Medley [03:56]
06. Suite for a Clown [09:47]
07. Now's the Time [08:43]
08. Florence [09:15]
 
Лог создания рипа
Exact Audio Copy V1.0 beta 3 from 29. August 2011
EAC extraction logfile from 16. June 2013, 19:22
Bobby Jaspar / Featuring : Mundell Lowe & René Thomas
Used drive : ATAPI iHAS124 D Adapter: 1 ID: 0
Read mode : Secure
Utilize accurate stream : Yes
Defeat audio cache : Yes
Make use of C2 pointers : No
Read offset correction : 6
Overread into Lead-In and Lead-Out : No
Fill up missing offset samples with silence : Yes
Delete leading and trailing silent blocks : No
Null samples used in CRC calculations : Yes
Used interface : Native Win32 interface for Win NT & 2000
Gap handling : Appended to previous track
Used output format : User Defined Encoder
Selected bitrate : 128 kBit/s
Quality : High
Add ID3 tag : No
Command line compressor : C:\Program Files (x86)\Exact Audio Copy\Flac\flac.exe
Additional command line options : -V -8 -T "Genre=%genre%" -T "Artist=%artist%" -T "Title=%title%" -T "Album=%albumtitle%" -T "Date=%year%" -T "Tracknumber=%tracknr%" -T "Comment=%comment%" %source%
TOC of the extracted CD
Track | Start | Length | Start sector | End sector
---------------------------------------------------------
1 | 0:00.33 | 8:08.32 | 33 | 36664
2 | 8:08.65 | 8:20.73 | 36665 | 74237
3 | 16:29.63 | 2:45.10 | 74238 | 86622
4 | 19:14.73 | 3:46.17 | 86623 | 103589
5 | 23:01.15 | 3:56.65 | 103590 | 121354
6 | 26:58.05 | 9:47.03 | 121355 | 165382
7 | 36:45.08 | 8:43.42 | 165383 | 204649
8 | 45:28.50 | 9:15.33 | 204650 | 246307
Track 1
Filename D:\1991.Bobby Jaspar featuring Mundell Lowe and Rene Thomas - With Friends\01. It Could Happen to You.wav
Pre-gap length 0:00:02.33
Peak level 93.2 %
Extraction speed 5.8 X
Track quality 100.0 %
Test CRC F77DE3D2
Copy CRC F77DE3D2
Track not present in AccurateRip database
Copy OK
Track 2
Filename D:\1991.Bobby Jaspar featuring Mundell Lowe and Rene Thomas - With Friends\02. Gal in Calico.wav
Pre-gap length 0:00:27.72
Peak level 97.7 %
Extraction speed 6.6 X
Track quality 99.9 %
Test CRC 3696A579
Copy CRC 3696A579
Track not present in AccurateRip database
Copy OK
Track 3
Filename D:\1991.Bobby Jaspar featuring Mundell Lowe and Rene Thomas - With Friends\03. Stuffy.wav
Peak level 66.3 %
Extraction speed 6.7 X
Track quality 100.0 %
Test CRC EF5FA7BD
Copy CRC EF5FA7BD
Track not present in AccurateRip database
Copy OK
Track 4
Filename D:\1991.Bobby Jaspar featuring Mundell Lowe and Rene Thomas - With Friends\04. Waltz for Debbie.wav
Pre-gap length 0:00:01.73
Peak level 91.2 %
Extraction speed 7.4 X
Track quality 100.0 %
Test CRC 9FA01B45
Copy CRC 9FA01B45
Track not present in AccurateRip database
Copy OK
Track 5
Filename D:\1991.Bobby Jaspar featuring Mundell Lowe and Rene Thomas - With Friends\05. My Fair Lady Medley.wav
Pre-gap length 0:00:03.00
Peak level 75.2 %
Extraction speed 7.8 X
Track quality 100.0 %
Test CRC 2C309A4A
Copy CRC 2C309A4A
Track not present in AccurateRip database
Copy OK
Track 6
Filename D:\1991.Bobby Jaspar featuring Mundell Lowe and Rene Thomas - With Friends\06. Suite for a Clown.wav
Pre-gap length 0:00:03.12
Peak level 91.5 %
Extraction speed 9.2 X
Track quality 100.0 %
Test CRC 8D6F2DC6
Copy CRC 8D6F2DC6
Track not present in AccurateRip database
Copy OK
Track 7
Filename D:\1991.Bobby Jaspar featuring Mundell Lowe and Rene Thomas - With Friends\07. Now's the Time.wav
Pre-gap length 0:00:03.38
Peak level 84.3 %
Extraction speed 9.4 X
Track quality 99.9 %
Test CRC E2313023
Copy CRC E2313023
Track not present in AccurateRip database
Copy OK
Track 8
Filename D:\1991.Bobby Jaspar featuring Mundell Lowe and Rene Thomas - With Friends\08. Florence.wav
Pre-gap length 0:00:02.47
Peak level 93.2 %
Extraction speed 10.1 X
Track quality 99.9 %
Test CRC 752C4CF6
Copy CRC 752C4CF6
Track not present in AccurateRip database
Copy OK
None of the tracks are present in the AccurateRip database
No errors occurred
End of status report
==== Log checksum F76CF71F882B4A49652E6CDB6C22C8F4B4C64CF705844F990C076612F03DF6C2 ====
 
Содержание индексной карты (.CUE)
REM GENRE Jazz
REM DATE 1991
REM DISCID 5E0CD408
REM COMMENT "ExactAudioCopy v1.0b3"
PERFORMER "Bobby Jaspar"
TITLE "Featuring : Mundell Lowe & Rene Thomas"
FILE "01. It Could Happen to You.wav" WAVE
TRACK 01 AUDIO
TITLE "It Could Happen to You"
PERFORMER "Bobby Jaspar"
PREGAP 00:00:33
INDEX 01 00:00:00
TRACK 02 AUDIO
TITLE "Gal in Calico"
PERFORMER "Bobby Jaspar"
INDEX 00 07:40:35
FILE "02. Gal in Calico.wav" WAVE
INDEX 01 00:00:00
FILE "03. Stuffy.wav" WAVE
TRACK 03 AUDIO
TITLE "Stuffy"
PERFORMER "Bobby Jaspar"
INDEX 01 00:00:00
TRACK 04 AUDIO
TITLE "Waltz for Debbie"
PERFORMER "Bobby Jaspar"
INDEX 00 02:43:12
FILE "04. Waltz for Debbie.wav" WAVE
INDEX 01 00:00:00
TRACK 05 AUDIO
TITLE "My Fair Lady Medley"
PERFORMER "Bobby Jaspar"
INDEX 00 03:43:17
FILE "05. My Fair Lady Medley.wav" WAVE
INDEX 01 00:00:00
TRACK 06 AUDIO
TITLE "Suite for a Clown"
PERFORMER "Bobby Jaspar"
INDEX 00 03:53:53
FILE "06. Suite for a Clown.wav" WAVE
INDEX 01 00:00:00
TRACK 07 AUDIO
TITLE "Now's the Time"
PERFORMER "Bobby Jaspar"
INDEX 00 09:43:40
FILE "07. Now's the Time.wav" WAVE
INDEX 01 00:00:00
TRACK 08 AUDIO
TITLE "Florence"
PERFORMER "Bobby Jaspar"
INDEX 00 08:40:70
FILE "08. Florence.wav" WAVE
INDEX 01 00:00:00
 
Состав
Bobby Jaspar - fl, ts
Mundell Lowe - g
Rene Thomas - g
George Duvivier - b
Ed Shaughnessy - dr
Monty Budwig - b
Nick Ceroli - dr
Jean Marie Ingrand - b
Jean-Louis Viale - dr
По всем вопросам пишите личное сообщение пользователю M0p94ok.
06:07
442
Нет комментариев. Ваш будет первым!