Поиск

(Mainstream Jazz) [CD] Ruby Braff - Ruby Braff's All-Stars - Braff! (1956) - 1989, FLAC (tracks+.cue), lossless

(Mainstream Jazz) [CD] Ruby Braff - Ruby Braff's All-Stars - Braff! (1956) - 1989, FLAC (tracks+.cue), lossless
Треклист:
Ruby Braff - Ruby Braff's All-Stars - Braff! (1956)
Жанр: Mainstream Jazz
Носитель: CD
Год издания: 1989
Издатель (лейбл): Portrait Masters
Номер по каталогу: RK 44393
Аудиокодек: FLAC (*.flac)
Тип рипа: tracks+.cue
Битрейт аудио: lossless
Продолжительность: 40:51
Источник (релизер): What.cd (cdub17)
Наличие сканов в содержимом раздачи: нет
Треклист:
01. Stardust (3:09)
02. Here's Freddie (4:49)
03. Indian Summer (4:05)
04. Blue Turning Grey Over You (2:57)
05. Just One More Chance (3:40)
06. When My Dreamboat Comes Home (3:25)
07. You're Lucky To Me (3:11)
08. Moonglow (3:22)
09. It's Been So Long (3:13)
10. Too Marvelous For Words (2:38)
11. How Long Has This Been Going On? (3:32)
12. 'S Wonderful (2:51)
 
Лог создания рипа
Exact Audio Copy V1.0 beta 3 from 29. August 2011
EAC extraction logfile from 20. April 2014, 15:09
Ruby Braff / Braff!
Used drive : HL-DT-STDVDRWBD CT30N Adapter: 0 ID: 1
Read mode : Secure
Utilize accurate stream : Yes
Defeat audio cache : Yes
Make use of C2 pointers : No
Read offset correction : 102
Overread into Lead-In and Lead-Out : No
Fill up missing offset samples with silence : Yes
Delete leading and trailing silent blocks : No
Null samples used in CRC calculations : Yes
Used interface : Native Win32 interface for Win NT & 2000
Gap handling : Appended to previous track
Used output format : User Defined Encoder
Selected bitrate : 768 kBit/s
Quality : High
Add ID3 tag : No
Command line compressor : C:\Program Files (x86)\Exact Audio Copy\FLAC\FLAC.EXE
Additional command line options : -8 -V -T "ARTIST=%artist%" -T "TITLE=%title%" -T "ALBUM=%albumtitle%" -T "DATE=%year%" -T "TRACKNUMBER=%tracknr%" -T "GENRE=%genre%" -T "PERFORMER=%albuminterpret%" -T "COMPOSER=%composer%" %haslyrics%--tag-from-file=LYRICS="%lyricsfile%"%haslyrics% -T "ALBUMARTIST=%albumartist%" -T "DISCNUMBER=%cdnumber%" -T "TOTALDISCS=%totalcds%" -T "TOTALTRACKS=%numtracks%" -T "COMMENT=%comment%" %source% -o %dest%
TOC of the extracted CD
Track | Start | Length | Start sector | End sector
---------------------------------------------------------
1 | 0:00.00 | 3:08.57 | 0 | 14156
2 | 3:08.57 | 4:48.68 | 14157 | 35824
3 | 7:57.50 | 4:05.32 | 35825 | 54231
4 | 12:03.07 | 2:56.45 | 54232 | 67476
5 | 14:59.52 | 3:39.73 | 67477 | 83974
6 | 18:39.50 | 3:24.57 | 83975 | 99331
7 | 22:04.32 | 3:10.53 | 99332 | 113634
8 | 25:15.10 | 3:22.10 | 113635 | 128794
9 | 28:37.20 | 3:12.62 | 128795 | 143256
10 | 31:50.07 | 2:38.15 | 143257 | 155121
11 | 34:28.22 | 3:31.68 | 155122 | 171014
12 | 38:00.15 | 2:50.40 | 171015 | 183804
Track 1
Filename C:\Users\Public\Downloads\Ruby Braff\Ruby Braff's All-Stars - Braff! (1989) [FLAC]\01 - Stardust.wav
Pre-gap length 0:00:02.00
Peak level 91.8 %
Extraction speed 1.2 X
Track quality 100.0 %
Test CRC 87D25534
Copy CRC 87D25534
Accurately ripped (confidence 2) [7F00E05A] (AR v2)
Copy OK
Track 2
Filename C:\Users\Public\Downloads\Ruby Braff\Ruby Braff's All-Stars - Braff! (1989) [FLAC]\02 - Here's Freddie.wav
Pre-gap length 0:00:02.60
Peak level 78.0 %
Extraction speed 1.2 X
Track quality 99.9 %
Test CRC 38F6442F
Copy CRC 38F6442F
Accurately ripped (confidence 2) [6F17C03A] (AR v2)
Copy OK
Track 3
Filename C:\Users\Public\Downloads\Ruby Braff\Ruby Braff's All-Stars - Braff! (1989) [FLAC]\03 - Indian Summer.wav
Pre-gap length 0:00:02.60
Peak level 76.1 %
Extraction speed 1.5 X
Track quality 100.0 %
Test CRC 8BB824EC
Copy CRC 8BB824EC
Accurately ripped (confidence 2) [4164F6D9] (AR v2)
Copy OK
Track 4
Filename C:\Users\Public\Downloads\Ruby Braff\Ruby Braff's All-Stars - Braff! (1989) [FLAC]\04 - Blue Turning Grey Over You.wav
Pre-gap length 0:00:02.60
Peak level 69.9 %
Extraction speed 1.3 X
Track quality 99.9 %
Test CRC 5BF007E4
Copy CRC 5BF007E4
Accurately ripped (confidence 2) [58755A1D] (AR v2)
Copy OK
Track 5
Filename C:\Users\Public\Downloads\Ruby Braff\Ruby Braff's All-Stars - Braff! (1989) [FLAC]\05 - Just One More Chance.wav
Pre-gap length 0:00:02.60
Peak level 80.6 %
Extraction speed 1.6 X
Track quality 100.0 %
Test CRC 1EFC37A8
Copy CRC 1EFC37A8
Accurately ripped (confidence 2) [3EDC6082] (AR v2)
Copy OK
Track 6
Filename C:\Users\Public\Downloads\Ruby Braff\Ruby Braff's All-Stars - Braff! (1989) [FLAC]\06 - When My Dreamboat Comes Home.wav
Pre-gap length 0:00:02.60
Peak level 62.0 %
Extraction speed 1.7 X
Track quality 100.0 %
Test CRC 0F361F1D
Copy CRC 0F361F1D
Accurately ripped (confidence 2) [43B3FBB0] (AR v2)
Copy OK
Track 7
Filename C:\Users\Public\Downloads\Ruby Braff\Ruby Braff's All-Stars - Braff! (1989) [FLAC]\07 - You're Lucky To Me.wav
Pre-gap length 0:00:02.60
Peak level 70.1 %
Extraction speed 1.8 X
Track quality 100.0 %
Test CRC 18DFD52C
Copy CRC 18DFD52C
Accurately ripped (confidence 2) [4BDAB62A] (AR v2)
Copy OK
Track 8
Filename C:\Users\Public\Downloads\Ruby Braff\Ruby Braff's All-Stars - Braff! (1989) [FLAC]\08 - Moonglow.wav
Pre-gap length 0:00:02.60
Peak level 70.2 %
Extraction speed 1.8 X
Track quality 100.0 %
Test CRC 47A24FAA
Copy CRC 47A24FAA
Accurately ripped (confidence 2) [F1A57834] (AR v2)
Copy OK
Track 9
Filename C:\Users\Public\Downloads\Ruby Braff\Ruby Braff's All-Stars - Braff! (1989) [FLAC]\09 - It's Been So Long.wav
Pre-gap length 0:00:02.60
Peak level 83.6 %
Extraction speed 1.9 X
Track quality 100.0 %
Test CRC 49FC3A5C
Copy CRC 49FC3A5C
Accurately ripped (confidence 2) [F7B0A3B0] (AR v2)
Copy OK
Track 10
Filename C:\Users\Public\Downloads\Ruby Braff\Ruby Braff's All-Stars - Braff! (1989) [FLAC]\10 - Too Marvelous For Words.wav
Pre-gap length 0:00:02.60
Peak level 72.8 %
Extraction speed 1.9 X
Track quality 100.0 %
Test CRC 2A26CFB7
Copy CRC 2A26CFB7
Accurately ripped (confidence 2) [2BD83846] (AR v2)
Copy OK
Track 11
Filename C:\Users\Public\Downloads\Ruby Braff\Ruby Braff's All-Stars - Braff! (1989) [FLAC]\11 - How Long Has This Been Going On.wav
Pre-gap length 0:00:02.60
Peak level 86.4 %
Extraction speed 2.1 X
Track quality 100.0 %
Test CRC 02D8AFC9
Copy CRC 02D8AFC9
Accurately ripped (confidence 2) [E7A3F5EF] (AR v2)
Copy OK
Track 12
Filename C:\Users\Public\Downloads\Ruby Braff\Ruby Braff's All-Stars - Braff! (1989) [FLAC]\12 - 's Wonderful.wav
Pre-gap length 0:00:02.60
Peak level 76.8 %
Extraction speed 2.0 X
Track quality 100.0 %
Test CRC 7100A4E5
Copy CRC 7100A4E5
Accurately ripped (confidence 2) [F0B061C8] (AR v2)
Copy OK
All tracks accurately ripped
No errors occurred
End of status report
---- CUETools DB Plugin V2.1.3
[CTDB TOCID: q33iv18XKlbBuEqz1b_TcTS2d20-] disk not present in database, Submit result: q33iv18XKlbBuEqz1b_TcTS2d20- has been uploaded
==== Log checksum 6C6C448793580DD3CFD0BD8B88F82672DADE75F32AAA8103B9365572B1AFCCED ====
 
Содержание индексной карты (.CUE)
REM GENRE Jazz
REM DATE 1989
REM DISCID 8D09920C
REM COMMENT "ExactAudioCopy v1.0b3"
PERFORMER "Ruby Braff"
TITLE "Braff!"
FILE "01 - Stardust.wav" WAVE
TRACK 01 AUDIO
TITLE "Stardust"
PERFORMER "Ruby Braff"
INDEX 01 00:00:00
TRACK 02 AUDIO
TITLE "Here's Freddie"
PERFORMER "Ruby Braff"
INDEX 00 03:05:72
FILE "02 - Here's Freddie.wav" WAVE
INDEX 01 00:00:00
TRACK 03 AUDIO
TITLE "Indian Summer"
PERFORMER "Ruby Braff"
INDEX 00 04:46:08
FILE "03 - Indian Summer.wav" WAVE
INDEX 01 00:00:00
TRACK 04 AUDIO
TITLE "Blue Turning Grey Over You"
PERFORMER "Ruby Braff"
INDEX 00 04:02:47
FILE "04 - Blue Turning Grey Over You.wav" WAVE
INDEX 01 00:00:00
TRACK 05 AUDIO
TITLE "Just One More Chance"
PERFORMER "Ruby Braff"
INDEX 00 02:53:60
FILE "05 - Just One More Chance.wav" WAVE
INDEX 01 00:00:00
TRACK 06 AUDIO
TITLE "When My Dreamboat Comes Home"
PERFORMER "Ruby Braff"
INDEX 00 03:37:13
FILE "06 - When My Dreamboat Comes Home.wav" WAVE
INDEX 01 00:00:00
TRACK 07 AUDIO
TITLE "You're Lucky To Me"
PERFORMER "Ruby Braff"
INDEX 00 03:21:72
FILE "07 - You're Lucky To Me.wav" WAVE
INDEX 01 00:00:00
TRACK 08 AUDIO
TITLE "Moonglow"
PERFORMER "Ruby Braff"
INDEX 00 03:07:68
FILE "08 - Moonglow.wav" WAVE
INDEX 01 00:00:00
TRACK 09 AUDIO
TITLE "It's Been So Long"
PERFORMER "Ruby Braff"
INDEX 00 03:19:25
FILE "09 - It's Been So Long.wav" WAVE
INDEX 01 00:00:00
TRACK 10 AUDIO
TITLE "Too Marvelous For Words"
PERFORMER "Ruby Braff"
INDEX 00 03:10:02
FILE "10 - Too Marvelous For Words.wav" WAVE
INDEX 01 00:00:00
TRACK 11 AUDIO
TITLE "How Long Has This Been Going On?"
PERFORMER "Ruby Braff"
INDEX 00 02:35:30
FILE "11 - How Long Has This Been Going On.wav" WAVE
INDEX 01 00:00:00
TRACK 12 AUDIO
TITLE "'S Wonderful"
PERFORMER "Ruby Braff"
INDEX 00 03:29:08
FILE "12 - 'S Wonderful.wav" WAVE
INDEX 01 00:00:00
 
Состав
1, 4, 9, 11 - Ruby Braff, trumpet; Dave McKenna, piano; Steve Jordan, guitar; Buzzy Drootin, drums. Recorded June 26, 1956.
2, 5, 7, 12 - Ruby Braff, trumpet; Coleman Hawkins, tenor saxophone; Ernie Caceras, baritone saxophone; Lawrence Brown, trombone; Don Elliot, vibraphone; Nat Pierce, piano; Freddie Green, guitar; Eddie Jones, string bass; Buzzy Drootin, drums. Recorded June 28, 1956.
3, 6, 8, 10 - Ruby Braff, trumpet; Don Elliot, vibraphone; Nat Pierce, piano; Freddie Green, Guitar; Eddie Jones, string bass; Buzzy Drootin, drums. Recorded July 10, 1956.
Download available for power users only.
13:31
425
Нет комментариев. Ваш будет первым!