Поиск

(Mainstream Jazz) [CD] Coleman Hawkins (with Red Allen & Roy Eldridge) - The Tenor For All Seasons (Doble Set) - 1997 {JZCL-5017}, FLAC (tracks+.cue), lossless

(Mainstream Jazz) [CD] Coleman Hawkins (with Red Allen & Roy Eldridge) - The Tenor For All Seasons (Doble Set) - 1997 {JZCL-5017}, FLAC (tracks+.cue), lossless
Треклист:
Coleman Hawkins (with Red Allen & Roy Eldridge) - The Tenor For All Seasons (Doble Set)

Жанр: Mainstream Jazz
Носитель: CD
Год издания: 1997
Издатель (лейбл): Jazz Classics
Номер по каталогу: JZCL-5017
Аудиокодек: FLAC (*.flac)
Тип рипа: tracks+.cue
Битрейт аудио: lossless
Продолжительность: 58:54 / 74:56
Rip by LolaMontes
Наличие сканов в содержимом раздачи: да 
 
 
CD 1 - Coleman Hawkins & Red Allen - Standards And Warhorses
Треклист:
01. Battle Hymn Of The Republic (3:01)
02. Frankie And Johnny (4:22)
03. When The Saints Go Marchin' In (2:58)
04. South (6:24)
05. Won't You Come Home Bill Bailey? (4:29)
06. The Blues (5:03)
07. Maryland, My Maryland (3:55)
08. Stormy Weather (3:32)
09. Mean To Me (3:46)
10. The Lonesome Road (5:57)
11. Sleepy Time Gal (4:34)
12. Summertime (5:01)
13. All Of Me (3:17)
14. Tea For Two (2:36)
 
 
 
Лог создания рипа
Exact Audio Copy V1.0 beta 3 from 29. August 2011
EAC extraction logfile from 22. January 2015, 12:22
Coleman Hawkins / The Tenor For All Seasons
Used drive  : HL-DT-STDVD+-RW GH82N   Adapter: 0  ID: 2
Read mode               : Secure
Utilize accurate stream : Yes
Defeat audio cache      : Yes
Make use of C2 pointers : No
Read offset correction                      : 667
Overread into Lead-In and Lead-Out          : No
Fill up missing offset samples with silence : Yes
Delete leading and trailing silent blocks   : No
Null samples used in CRC calculations       : Yes
Used interface                              : Native Win32 interface for Win NT & 2000
Gap handling                                : Appended to previous track
Used output format              : User Defined Encoder
Selected bitrate                : 1024 kBit/s
Quality                         : High
Add ID3 tag                     : No
Command line compressor         : C:\Program Files (x86)\Exact Audio Copy\Flac\flac.exe
Additional command line options : -8 -V -T "ARTIST=%artist%" -T "TITLE=%title%" -T "ALBUM=%albumtitle%" -T "DATE=%year%" -T "TRACKNUMBER=%tracknr%" -T "GENRE=%genre%" -T "COMMENT=%comment%" -T "BAND=%albuminterpret%" -T "ALBUMARTIST=%albuminterpret%" -T "COMPOSER=%composer%" %haslyrics%--tag-from-file=LYRICS="%lyricsfile%"%haslyrics% -T "DISCNUMBER=%cdnumber%" -T "TOTALDISCS=%totalcds%" -T "TOTALTRACKS=%numtracks%" %hascover%--picture="%coverfile%"%hascover% %source% -o %dest%
TOC of the extracted CD
     Track |   Start  |  Length  | Start sector | End sector
    ---------------------------------------------------------
        1  |  0:00.25 |  3:00.42 |        25    |    13566
        2  |  3:00.67 |  4:21.73 |     13567    |    33214
        3  |  7:22.65 |  2:58.17 |     33215    |    46581
        4  | 10:21.07 |  6:23.45 |     46582    |    75351
        5  | 16:44.52 |  4:28.38 |     75352    |    95489
        6  | 21:13.15 |  5:02.62 |     95490    |   118201
        7  | 26:16.02 |  3:55.30 |    118202    |   135856
        8  | 30:11.32 |  3:32.30 |    135857    |   151786
        9  | 33:43.62 |  3:45.48 |    151787    |   168709
       10  | 37:29.35 |  5:57.25 |    168710    |   195509
       11  | 43:26.60 |  4:33.72 |    195510    |   216056
       12  | 48:00.57 |  5:00.45 |    216057    |   238601
       13  | 53:01.27 |  3:16.68 |    238602    |   253369
       14  | 56:18.20 |  2:36.17 |    253370    |   265086
Track  1
     Filename C:\Rips\Coleman Hawkins - The Tenor For All Seasons\CD 1 - High Standards & Warhorses\01 Battle Hymn Of The Republic.wav
     Pre-gap length  0:00:02.25
     Peak level 81.7 %
     Extraction speed 1.5 X
     Track quality 99.9 %
     Copy CRC 37D26775
     Track not present in AccurateRip database
     Copy OK
Track  2
     Filename C:\Rips\Coleman Hawkins - The Tenor For All Seasons\CD 1 - High Standards & Warhorses\02 Frankie And Johnny.wav
     Pre-gap length  0:00:03.27
     Peak level 78.2 %
     Extraction speed 2.1 X
     Track quality 100.0 %
     Copy CRC 8DC4BBE0
     Track not present in AccurateRip database
     Copy OK
Track  3
     Filename C:\Rips\Coleman Hawkins - The Tenor For All Seasons\CD 1 - High Standards & Warhorses\03 When The Saints Go Marchin' In.wav
     Pre-gap length  0:00:03.35
     Peak level 73.9 %
     Extraction speed 2.1 X
     Track quality 100.0 %
     Copy CRC 8016D10F
     Track not present in AccurateRip database
     Copy OK
Track  4
     Filename C:\Rips\Coleman Hawkins - The Tenor For All Seasons\CD 1 - High Standards & Warhorses\04 South.wav
     Pre-gap length  0:00:02.57
     Peak level 88.0 %
     Extraction speed 2.6 X
     Track quality 100.0 %
     Copy CRC 86334F01
     Track not present in AccurateRip database
     Copy OK
Track  5
     Filename C:\Rips\Coleman Hawkins - The Tenor For All Seasons\CD 1 - High Standards & Warhorses\05 Won't You Come Home Bill Bailey.wav
     Pre-gap length  0:00:03.45
     Peak level 96.3 %
     Extraction speed 2.7 X
     Track quality 100.0 %
     Copy CRC DC38387C
     Track not present in AccurateRip database
     Copy OK
Track  6
     Filename C:\Rips\Coleman Hawkins - The Tenor For All Seasons\CD 1 - High Standards & Warhorses\06 The Blues.wav
     Pre-gap length  0:00:03.33
     Peak level 85.5 %
     Extraction speed 2.9 X
     Track quality 100.0 %
     Copy CRC 8F0D1C09
     Track not present in AccurateRip database
     Copy OK
Track  7
     Filename C:\Rips\Coleman Hawkins - The Tenor For All Seasons\CD 1 - High Standards & Warhorses\07 Maryland, My Maryland.wav
     Pre-gap length  0:00:03.07
     Peak level 90.6 %
     Extraction speed 2.6 X
     Track quality 99.9 %
     Copy CRC C1AF92C3
     Track not present in AccurateRip database
     Copy OK
Track  8
     Filename C:\Rips\Coleman Hawkins - The Tenor For All Seasons\CD 1 - High Standards & Warhorses\08 Stormy Weather.wav
     Pre-gap length  0:00:02.27
     Peak level 99.9 %
     Extraction speed 3.0 X
     Track quality 100.0 %
     Copy CRC DB73A0B3
     Track not present in AccurateRip database
     Copy OK
Track  9
     Filename C:\Rips\Coleman Hawkins - The Tenor For All Seasons\CD 1 - High Standards & Warhorses\09 Mean To Me.wav
     Pre-gap length  0:00:02.57
     Peak level 80.3 %
     Extraction speed 3.2 X
     Track quality 100.0 %
     Copy CRC 011B6CC9
     Track not present in AccurateRip database
     Copy OK
Track 10
     Filename C:\Rips\Coleman Hawkins - The Tenor For All Seasons\CD 1 - High Standards & Warhorses\10 The Lonesome Road.wav
     Pre-gap length  0:00:03.25
     Peak level 86.4 %
     Extraction speed 3.6 X
     Track quality 100.0 %
     Copy CRC DD1F6EB0
     Track not present in AccurateRip database
     Copy OK
Track 11
     Filename C:\Rips\Coleman Hawkins - The Tenor For All Seasons\CD 1 - High Standards & Warhorses\11 Sleepy Time Gal.wav
     Pre-gap length  0:00:03.08
     Peak level 97.2 %
     Extraction speed 3.6 X
     Track quality 100.0 %
     Copy CRC F16B8E3F
     Track not present in AccurateRip database
     Copy OK
Track 12
     Filename C:\Rips\Coleman Hawkins - The Tenor For All Seasons\CD 1 - High Standards & Warhorses\12 Summertime.wav
     Pre-gap length  0:00:03.07
     Peak level 75.9 %
     Extraction speed 3.8 X
     Track quality 100.0 %
     Copy CRC 2FB43361
     Track not present in AccurateRip database
     Copy OK
Track 13
     Filename C:\Rips\Coleman Hawkins - The Tenor For All Seasons\CD 1 - High Standards & Warhorses\13 All Of Me.wav
     Pre-gap length  0:00:03.02
     Peak level 100.0 %
     Extraction speed 3.6 X
     Track quality 100.0 %
     Copy CRC 7A6D8826
     Track not present in AccurateRip database
     Copy OK
Track 14
     Filename C:\Rips\Coleman Hawkins - The Tenor For All Seasons\CD 1 - High Standards & Warhorses\14 Tea For Two.wav
     Pre-gap length  0:00:03.08
     Peak level 81.8 %
     Extraction speed 3.6 X
     Track quality 100.0 %
     Copy CRC CD6A6D37
     Track not present in AccurateRip database
     Copy OK
None of the tracks are present in the AccurateRip database
No errors occurred
End of status report
==== Log checksum 59A000E9EF74E440B8C966EF92BA82908A84CB0D7001493AD1314A826D3BBDCD ====
 
 
Содержание индексной карты (.CUE)
REM GENRE Jazz
REM DATE 1958
REM DISCID B00DCE0E
REM COMMENT "ExactAudioCopy v1.0b3"
CATALOG 0000000000000
PERFORMER "Coleman Hawkins & Red Allen"
TITLE "The Tenor For All Seasons"
FILE "01 Battle Hymn Of The Republic.wav" WAVE
  TRACK 01 AUDIO
    TITLE "Battle Hymn Of The Republic"
    PERFORMER "Coleman Hawkins & Red Allen"
    PREGAP 00:00:25
    INDEX 01 00:00:00
  TRACK 02 AUDIO
    TITLE "Frankie And Johnny"
    PERFORMER "Coleman Hawkins & Red Allen"
    INDEX 00 02:57:15
FILE "02 Frankie And Johnny.wav" WAVE
    INDEX 01 00:00:00
  TRACK 03 AUDIO
    TITLE "When The Saints Go Marchin' In"
    PERFORMER "Coleman Hawkins & Red Allen"
    INDEX 00 04:18:38
FILE "03 When The Saints Go Marchin' In.wav" WAVE
    INDEX 01 00:00:00
  TRACK 04 AUDIO
    TITLE "South"
    PERFORMER "Coleman Hawkins & Red Allen"
    INDEX 00 02:55:35
FILE "04 South.wav" WAVE
    INDEX 01 00:00:00
  TRACK 05 AUDIO
    TITLE "Won't You Come Home Bill Bailey?"
    PERFORMER "Coleman Hawkins & Red Allen"
    INDEX 00 06:20:00
FILE "05 Won't You Come Home Bill Bailey.wav" WAVE
    INDEX 01 00:00:00
  TRACK 06 AUDIO
    TITLE "The Blues"
    PERFORMER "Coleman Hawkins & Red Allen"
    INDEX 00 04:25:05
FILE "06 The Blues.wav" WAVE
    INDEX 01 00:00:00
  TRACK 07 AUDIO
    TITLE "Maryland, My Maryland"
    PERFORMER "Coleman Hawkins & Red Allen"
    INDEX 00 04:59:55
FILE "07 Maryland, My Maryland.wav" WAVE
    INDEX 01 00:00:00
  TRACK 08 AUDIO
    TITLE "Stormy Weather"
    PERFORMER "Coleman Hawkins & Red Allen"
    INDEX 00 03:53:03
FILE "08 Stormy Weather.wav" WAVE
    INDEX 01 00:00:00
  TRACK 09 AUDIO
    TITLE "Mean To Me"
    PERFORMER "Coleman Hawkins & Red Allen"
    INDEX 00 03:29:48
FILE "09 Mean To Me.wav" WAVE
    INDEX 01 00:00:00
  TRACK 10 AUDIO
    TITLE "The Lonesome Road"
    PERFORMER "Coleman Hawkins & Red Allen"
    INDEX 00 03:42:23
FILE "10 The Lonesome Road.wav" WAVE
    INDEX 01 00:00:00
  TRACK 11 AUDIO
    TITLE "Sleepy Time Gal"
    PERFORMER "Coleman Hawkins & Red Allen"
    INDEX 00 05:54:17
FILE "11 Sleepy Time Gal.wav" WAVE
    INDEX 01 00:00:00
  TRACK 12 AUDIO
    TITLE "Summertime"
    PERFORMER "Coleman Hawkins & Red Allen"
    INDEX 00 04:30:65
FILE "12 Summertime.wav" WAVE
    INDEX 01 00:00:00
  TRACK 13 AUDIO
    TITLE "All Of Me"
    PERFORMER "Coleman Hawkins & Red Allen"
    INDEX 00 04:57:43
FILE "13 All Of Me.wav" WAVE
    INDEX 01 00:00:00
  TRACK 14 AUDIO
    TITLE "Tea For Two"
    PERFORMER "Coleman Hawkins & Red Allen"
    INDEX 00 03:13:60
FILE "14 Tea For Two.wav" WAVE
    INDEX 01 00:00:00
 
 
CD 2 - Coleman Hawkins & Roy Eldridge - Just You, Just Me (Live In '59)
Треклист:
01. Blue Lou (9:49)
02. Basin Street Blues (7:18)
03. Just You, Just Me (7:16)
04. Rifftide (7:32)
05. Ballad Medley (10:25)
06. Undecided (7:04)
07. Honeysuckle Rose (10:44)
08. Oh! Lady Be Good (7:25)
09. How High The Moon [Interpolating: Ornithology] (7:23)
 
 
 
Лог создания рипа
Exact Audio Copy V1.0 beta 3 from 29. August 2011
EAC extraction logfile from 22. January 2015, 11:44
Coleman Hawkins / A Tenor For All Seasons
Used drive  : HL-DT-STDVD+-RW GH82N   Adapter: 0  ID: 2
Read mode               : Secure
Utilize accurate stream : Yes
Defeat audio cache      : Yes
Make use of C2 pointers : No
Read offset correction                      : 667
Overread into Lead-In and Lead-Out          : No
Fill up missing offset samples with silence : Yes
Delete leading and trailing silent blocks   : No
Null samples used in CRC calculations       : Yes
Used interface                              : Native Win32 interface for Win NT & 2000
Gap handling                                : Appended to previous track
Used output format              : User Defined Encoder
Selected bitrate                : 1024 kBit/s
Quality                         : High
Add ID3 tag                     : No
Command line compressor         : C:\Program Files (x86)\Exact Audio Copy\Flac\flac.exe
Additional command line options : -8 -V -T "ARTIST=%artist%" -T "TITLE=%title%" -T "ALBUM=%albumtitle%" -T "DATE=%year%" -T "TRACKNUMBER=%tracknr%" -T "GENRE=%genre%" -T "COMMENT=%comment%" -T "BAND=%albuminterpret%" -T "ALBUMARTIST=%albuminterpret%" -T "COMPOSER=%composer%" %haslyrics%--tag-from-file=LYRICS="%lyricsfile%"%haslyrics% -T "DISCNUMBER=%cdnumber%" -T "TOTALDISCS=%totalcds%" -T "TOTALTRACKS=%numtracks%" %hascover%--picture="%coverfile%"%hascover% %source% -o %dest%
TOC of the extracted CD
     Track |   Start  |  Length  | Start sector | End sector
    ---------------------------------------------------------
        1  |  0:00.17 |  9:48.55 |        17    |    44171
        2  |  9:48.72 |  7:18.18 |     44172    |    77039
        3  | 17:07.15 |  7:16.35 |     77040    |   109774
        4  | 24:23.50 |  7:31.42 |    109775    |   143641
        5  | 31:55.17 | 10:25.28 |    143642    |   190544
        6  | 42:20.45 |  7:04.05 |    190545    |   222349
        7  | 49:24.50 | 10:43.45 |    222350    |   270619
        8  | 60:08.20 |  7:25.00 |    270620    |   303994
        9  | 67:33.20 |  7:23.07 |    303995    |   337226
Track  1
     Filename C:\Rips\Coleman Hawkins - The Tenor For All Seasons\CD 2 - Just You, Just Me\01 Blue Lou.wav
     Pre-gap length  0:00:02.17
     Peak level 74.6 %
     Extraction speed 2.2 X
     Track quality 100.0 %
     Copy CRC DDD46FDF
     Cannot be verified as accurate (confidence 4)  [42EEFC4A], AccurateRip returned [B8445E10]  (AR v2)
     Copy OK
Track  2
     Filename C:\Rips\Coleman Hawkins - The Tenor For All Seasons\CD 2 - Just You, Just Me\02 Basin Street Blues.wav
     Pre-gap length  0:00:04.17
     Peak level 72.4 %
     Extraction speed 2.3 X
     Track quality 99.9 %
     Copy CRC D51C4D4C
     Cannot be verified as accurate (confidence 4)  [6FEA772A], AccurateRip returned [1549C83A]  (AR v2)
     Copy OK
Track  3
     Filename C:\Rips\Coleman Hawkins - The Tenor For All Seasons\CD 2 - Just You, Just Me\03 Just You, Just Me.wav
     Pre-gap length  0:00:03.73
     Peak level 87.8 %
     Extraction speed 2.8 X
     Track quality 100.0 %
     Copy CRC 6B35A33B
     Cannot be verified as accurate (confidence 4)  [107D4566], AccurateRip returned [0318E842]  (AR v2)
     Copy OK
Track  4
     Filename C:\Rips\Coleman Hawkins - The Tenor For All Seasons\CD 2 - Just You, Just Me\04 Rifftide.wav
     Pre-gap length  0:00:03.25
     Peak level 73.8 %
     Extraction speed 3.1 X
     Track quality 100.0 %
     Copy CRC 9E2827CE
     Cannot be verified as accurate (confidence 4)  [85D741C1], AccurateRip returned [BEC1F4A1]  (AR v2)
     Copy OK
Track  5
     Filename C:\Rips\Coleman Hawkins - The Tenor For All Seasons\CD 2 - Just You, Just Me\05 Ballad Medley.wav
     Pre-gap length  0:00:01.27
     Peak level 70.4 %
     Extraction speed 3.4 X
     Track quality 100.0 %
     Copy CRC 0E9A8BD7
     Cannot be verified as accurate (confidence 4)  [F99190D8], AccurateRip returned [BCEDE513]  (AR v2)
     Copy OK
Track  6
     Filename C:\Rips\Coleman Hawkins - The Tenor For All Seasons\CD 2 - Just You, Just Me\06 Undecided.wav
     Pre-gap length  0:00:02.43
     Peak level 79.1 %
     Extraction speed 3.6 X
     Track quality 100.0 %
     Copy CRC 152FCF88
     Cannot be verified as accurate (confidence 4)  [F1EDA325], AccurateRip returned [83F314CE]  (AR v2)
     Copy OK
Track  7
     Filename C:\Rips\Coleman Hawkins - The Tenor For All Seasons\CD 2 - Just You, Just Me\07 Honeysuckle Rose.wav
     Pre-gap length  0:00:04.05
     Peak level 85.7 %
     Extraction speed 3.9 X
     Track quality 100.0 %
     Copy CRC 49E5E60E
     Cannot be verified as accurate (confidence 4)  [2A26EB5B], AccurateRip returned [C1D821D8]  (AR v2)
     Copy OK
Track  8
     Filename C:\Rips\Coleman Hawkins - The Tenor For All Seasons\CD 2 - Just You, Just Me\08 Oh! Lady Be Good.wav
     Pre-gap length  0:00:04.35
     Peak level 71.0 %
     Extraction speed 4.0 X
     Track quality 100.0 %
     Copy CRC 13B68E6D
     Cannot be verified as accurate (confidence 4)  [311365D8], AccurateRip returned [8E60A165]  (AR v2)
     Copy OK
Track  9
     Filename C:\Rips\Coleman Hawkins - The Tenor For All Seasons\CD 2 - Just You, Just Me\09 How High the Moon [Interpolating- Ornithology].wav
     Pre-gap length  0:00:01.58
     Peak level 81.9 %
     Extraction speed 4.2 X
     Track quality 100.0 %
     Copy CRC 69819C84
     Cannot be verified as accurate (confidence 4)  [46A88EC3], AccurateRip returned [88036106]  (AR v2)
     Copy OK
No tracks could be verified as accurate
You may have a different pressing from the one(s) in the database
No errors occurred
End of status report
==== Log checksum 5366AFE6567D4AEC5E11FBA469737BEBD558B3FA4483DDE16D1B9DE8E03CB564 ====
 
 
Содержание индексной карты (.CUE)
REM GENRE Jazz
REM DATE 1959
REM DISCID 7A119009
REM COMMENT "ExactAudioCopy v1.0b3"
CATALOG 0000000000000
PERFORMER "Coleman Hawkins & Roy Eldridge"
TITLE "A Tenor For All Seasons"
FILE "01 Blue Lou.wav" WAVE
  TRACK 01 AUDIO
    TITLE "Blue Lou"
    PERFORMER "Coleman Hawkins & Roy Eldridge"
    PREGAP 00:00:17
    INDEX 01 00:00:00
  TRACK 02 AUDIO
    TITLE "Basin Street Blues"
    PERFORMER "Coleman Hawkins & Roy Eldridge"
    INDEX 00 09:44:38
FILE "02 Basin Street Blues.wav" WAVE
    INDEX 01 00:00:00
  TRACK 03 AUDIO
    TITLE "Just You, Just Me"
    PERFORMER "Coleman Hawkins & Roy Eldridge"
    INDEX 00 07:14:20
FILE "03 Just You, Just Me.wav" WAVE
    INDEX 01 00:00:00
  TRACK 04 AUDIO
    TITLE "Rifftide"
    PERFORMER "Coleman Hawkins & Roy Eldridge"
    INDEX 00 07:13:10
FILE "04 Rifftide.wav" WAVE
    INDEX 01 00:00:00
  TRACK 05 AUDIO
    TITLE "Ballad Medley"
    PERFORMER "Coleman Hawkins & Roy Eldridge"
    INDEX 00 07:30:15
FILE "05 Ballad Medley.wav" WAVE
    INDEX 01 00:00:00
  TRACK 06 AUDIO
    TITLE "Undecided"
    PERFORMER "Coleman Hawkins & Roy Eldridge"
    INDEX 00 10:22:60
FILE "06 Undecided.wav" WAVE
    INDEX 01 00:00:00
  TRACK 07 AUDIO
    TITLE "Honeysuckle Rose"
    PERFORMER "Coleman Hawkins & Roy Eldridge"
    INDEX 00 07:00:00
FILE "07 Honeysuckle Rose.wav" WAVE
    INDEX 01 00:00:00
  TRACK 08 AUDIO
    TITLE "Oh! Lady Be Good"
    PERFORMER "Coleman Hawkins & Roy Eldridge"
    INDEX 00 10:39:10
FILE "08 Oh! Lady Be Good.wav" WAVE
    INDEX 01 00:00:00
  TRACK 09 AUDIO
    TITLE "How High The Moon [Interpolating: Ornithology]"
    PERFORMER "Coleman Hawkins & Roy Eldridge"
    INDEX 00 07:23:17
FILE "09 How High The Moon [Interpolating- Ornithology].wav" WAVE
    INDEX 01 00:00:00
12:31
571
Нет комментариев. Ваш будет первым!