Поиск

(Mainstream, Chamber Jazz, Straight-Ahead) [CD] Roger Kellaway, Eddie Daniels - Duke At The Roadhouse: Live In Santa Fe - 2013, FLAC (tracks+.cue), lossless

(Mainstream, Chamber Jazz, Straight-Ahead) [CD] Roger Kellaway, Eddie Daniels - Duke At The Roadhouse: Live In Santa Fe - 2013, FLAC (tracks+.cue), lossless
Треклист:
Roger Kellaway, Eddie Daniels - Duke At The Roadhouse: Live In Santa Fe
Жанр: Mainstream, Chamber Jazz, Straight-Ahead
Носитель: CD
Год издания: 2013
Издатель (лейбл): IPO Recordings
Номер по каталогу: IPOC1024
Аудиокодек: FLAC (*.flac)
Тип рипа: tracks+.cue
Битрейт аудио: lossless
Продолжительность: 56:34
Rip by dtromp
Наличие сканов в содержимом раздачи: да
Треклист:
01. I'm Beginning To See The Light (7:08)
02. Creole Love Call (4:33)
03. Perdido (7:35)
04. Duke At The Roadhouse (3:25)
05. In A Mellow Tone (6:22)
06. In A Sentimental Mood (9:12)
07. Sophisticated Lady (5:29)
08. Duke In Ojai (4:49)
09. Mood Indigo (2:41)
10. It Don't Mean A Thing (5:19)
Personnel:
Roger Kellaway - p
Eddie Daniels - cl, ts
James Holland - clo
Rec.: Lensic Theater, Santa Fe, New Mexico, October 12 & 13, 2012.
 
 
Лог создания рипа
Exact Audio Copy V1.0 beta 3 from 29. August 2011
EAC extraction logfile from 19. November 2014, 10:13
Roger Kellaway, Eddie Daniels / Duke at the Roadhouse
Used drive  : ATAPI   iHBS112   2   Adapter: 2  ID: 0
Read mode               : Secure
Utilize accurate stream : Yes
Defeat audio cache      : Yes
Make use of C2 pointers : No
Read offset correction                      : 6
Overread into Lead-In and Lead-Out          : No
Fill up missing offset samples with silence : Yes
Delete leading and trailing silent blocks   : No
Null samples used in CRC calculations       : Yes
Used interface                              : Native Win32 interface for Win NT & 2000
Gap handling                                : Appended to previous track
Used output format              : User Defined Encoder
Selected bitrate                : 1024 kBit/s
Quality                         : Low
Add ID3 tag                     : No
Command line compressor         : C:\Program Files\FLAC Frontend\tools\flac.exe
Additional command line options : -8 -V -T "ARTIST=%artist%" -T "TITLE=%title%" -T "ALBUM=%albumtitle%" -T "DATE=%year%" -T "TRACKNUMBER=%tracknr%" -T "TOTALTRACKS=%numtracks%" -T "GENRE=%genre%" -T "ALBUMARTIST=%albumartist%" -T "ALBUM ARTIST=%albumartist%" -T "COMPOSER=%composer%" -T "PERFORMER=%albuminterpret%" -T "DISCNUMBER=%cdnumber%" -T "TOTALDISCS=%totalcds%" -T "COMMENT=EAC Secure Mode, Test & Copy, AccurateRip, FLAC -8" %source%
TOC of the extracted CD
     Track |   Start  |  Length  | Start sector | End sector
    ---------------------------------------------------------
        1  |  0:00.00 |  7:07.54 |         0    |    32078
        2  |  7:07.54 |  4:33.15 |     32079    |    52568
        3  | 11:40.69 |  7:35.20 |     52569    |    86713
        4  | 19:16.14 |  3:24.74 |     86714    |   102087
        5  | 22:41.13 |  6:22.28 |    102088    |   130765
        6  | 29:03.41 |  9:11.52 |    130766    |   172142
        7  | 38:15.18 |  5:29.19 |    172143    |   196836
        8  | 43:44.37 |  4:49.32 |    196837    |   218543
        9  | 48:33.69 |  2:41.14 |    218544    |   230632
       10  | 51:15.08 |  5:19.29 |    230633    |   254586
Track  1
     Filename P:\DL\Roger Kellaway, Eddie Daniels - Duke at the Roadhouse (2013) [FLAC]\01 - I'm Beginning to See the Light.wav
     Pre-gap length  0:00:02.00
     Peak level 98.7 %
     Extraction speed 5.7 X
     Track quality 100.0 %
     Test CRC 5164D271
     Copy CRC 5164D271
     Cannot be verified as accurate (confidence 2)  [A82CAEAF], AccurateRip returned [29C3992D]  (AR v2)
     Copy OK
Track  2
     Filename P:\DL\Roger Kellaway, Eddie Daniels - Duke at the Roadhouse (2013) [FLAC]\02 - Creole Love Call.wav
     Peak level 98.3 %
     Extraction speed 5.2 X
     Track quality 99.9 %
     Test CRC 71D23C0C
     Copy CRC 71D23C0C
     Cannot be verified as accurate (confidence 2)  [D4A5E77C], AccurateRip returned [C7DC51C9]  (AR v2)
     Copy OK
Track  3
     Filename P:\DL\Roger Kellaway, Eddie Daniels - Duke at the Roadhouse (2013) [FLAC]\03 - Perdido.wav
     Peak level 98.8 %
     Extraction speed 7.3 X
     Track quality 100.0 %
     Test CRC 97E88F3D
     Copy CRC 97E88F3D
     Cannot be verified as accurate (confidence 2)  [C14B02FE], AccurateRip returned [3B6359F0]  (AR v2)
     Copy OK
Track  4
     Filename P:\DL\Roger Kellaway, Eddie Daniels - Duke at the Roadhouse (2013) [FLAC]\04 - Duke at the Roadhouse.wav
     Peak level 98.8 %
     Extraction speed 6.6 X
     Track quality 100.0 %
     Test CRC D42BDAAD
     Copy CRC D42BDAAD
     Cannot be verified as accurate (confidence 2)  [810F5977], AccurateRip returned [BE131FC4]  (AR v2)
     Copy OK
Track  5
     Filename P:\DL\Roger Kellaway, Eddie Daniels - Duke at the Roadhouse (2013) [FLAC]\05 - In a Mellow Tone.wav
     Peak level 98.8 %
     Extraction speed 7.7 X
     Track quality 100.0 %
     Test CRC 46944840
     Copy CRC 46944840
     Cannot be verified as accurate (confidence 2)  [DA4FFCBF], AccurateRip returned [4722A09C]  (AR v2)
     Copy OK
Track  6
     Filename P:\DL\Roger Kellaway, Eddie Daniels - Duke at the Roadhouse (2013) [FLAC]\06 - In a Sentimental Mood.wav
     Peak level 98.8 %
     Extraction speed 9.1 X
     Track quality 100.0 %
     Test CRC 7E60831A
     Copy CRC 7E60831A
     Cannot be verified as accurate (confidence 2)  [15DE1E92], AccurateRip returned [239691AD]  (AR v2)
     Copy OK
Track  7
     Filename P:\DL\Roger Kellaway, Eddie Daniels - Duke at the Roadhouse (2013) [FLAC]\07 - Sophisticated Lady.wav
     Peak level 98.7 %
     Extraction speed 9.3 X
     Track quality 100.0 %
     Test CRC 6E56EFA1
     Copy CRC 6E56EFA1
     Cannot be verified as accurate (confidence 2)  [8EB20D84], AccurateRip returned [A82FB446]  (AR v2)
     Copy OK
Track  8
     Filename P:\DL\Roger Kellaway, Eddie Daniels - Duke at the Roadhouse (2013) [FLAC]\08 - Duke in Ojai.wav
     Peak level 98.8 %
     Extraction speed 9.5 X
     Track quality 100.0 %
     Test CRC FB0D8225
     Copy CRC FB0D8225
     Cannot be verified as accurate (confidence 2)  [48ABA0DF], AccurateRip returned [BB7CABC3]  (AR v2)
     Copy OK
Track  9
     Filename P:\DL\Roger Kellaway, Eddie Daniels - Duke at the Roadhouse (2013) [FLAC]\09 - Mood Indigo.wav
     Peak level 98.6 %
     Extraction speed 9.0 X
     Track quality 100.0 %
     Test CRC E79B6513
     Copy CRC E79B6513
     Cannot be verified as accurate (confidence 2)  [FB57FA57], AccurateRip returned [CC8F6705]  (AR v2)
     Copy OK
Track 10
     Filename P:\DL\Roger Kellaway, Eddie Daniels - Duke at the Roadhouse (2013) [FLAC]\10 - It Don't Mean a Thing.wav
     Peak level 98.8 %
     Extraction speed 8.7 X
     Track quality 99.9 %
     Test CRC 011B829F
     Copy CRC 011B829F
     Cannot be verified as accurate (confidence 2)  [1CCA5C22], AccurateRip returned [6E006FA4]  (AR v2)
     Copy OK
No tracks could be verified as accurate
You may have a different pressing from the one(s) in the database
No errors occurred
End of status report
---- CUETools DB Plugin V2.1.3
[CTDB TOCID: 6aXyQrm6fYtLK4v3LBSu1aUUUp8-] disk not present in database, Submit result: 6aXyQrm6fYtLK4v3LBSu1aUUUp8- has been uploaded
==== Log checksum 39F06584CF2CF2F5CF8C9EF73B50387CB41ED985B673FEFD7632BBF96093463F ====
 
 
Содержание индексной карты (.CUE)
REM GENRE Jazz
REM DATE 2013
REM DISCID 8D0D420A
REM COMMENT "ExactAudioCopy v1.0b3"
PERFORMER "Roger Kellaway, Eddie Daniels"
TITLE "Duke At The Roadhouse"
FILE "01 - I'm Beginning To See The Light.wav" WAVE
  TRACK 01 AUDIO
    TITLE "I'm Beginning To See The Light"
    PERFORMER "Roger Kellaway, Eddie Daniels"
    INDEX 01 00:00:00
FILE "02 - Creole Love Call.wav" WAVE
  TRACK 02 AUDIO
    TITLE "Creole Love Call"
    PERFORMER "Roger Kellaway, Eddie Daniels"
    INDEX 01 00:00:00
FILE "03 - Perdido.wav" WAVE
  TRACK 03 AUDIO
    TITLE "Perdido"
    PERFORMER "Roger Kellaway, Eddie Daniels"
    INDEX 01 00:00:00
FILE "04 - Duke At The Roadhouse.wav" WAVE
  TRACK 04 AUDIO
    TITLE "Duke At The Roadhouse"
    PERFORMER "Roger Kellaway, Eddie Daniels"
    INDEX 01 00:00:00
FILE "05 - In A Mellow Tone.wav" WAVE
  TRACK 05 AUDIO
    TITLE "In A Mellow Tone"
    PERFORMER "Roger Kellaway, Eddie Daniels"
    INDEX 01 00:00:00
FILE "06 - In A Sentimental Mood.wav" WAVE
  TRACK 06 AUDIO
    TITLE "In A Sentimental Mood"
    PERFORMER "Roger Kellaway, Eddie Daniels"
    INDEX 01 00:00:00
FILE "07 - Sophisticated Lady.wav" WAVE
  TRACK 07 AUDIO
    TITLE "Sophisticated Lady"
    PERFORMER "Roger Kellaway, Eddie Daniels"
    INDEX 01 00:00:00
FILE "08 - Duke In Ojai.wav" WAVE
  TRACK 08 AUDIO
    TITLE "Duke In Ojai"
    PERFORMER "Roger Kellaway, Eddie Daniels"
    INDEX 01 00:00:00
FILE "09 - Mood Indigo.wav" WAVE
  TRACK 09 AUDIO
    TITLE "Mood Indigo"
    PERFORMER "Roger Kellaway, Eddie Daniels"
    INDEX 01 00:00:00
FILE "10 - It Don't Mean A Thing.wav" WAVE
  TRACK 10 AUDIO
    TITLE "It Don't Mean A Thing"
    PERFORMER "Roger Kellaway, Eddie Daniels"
    INDEX 01 00:00:00
12:12
633
Нет комментариев. Ваш будет первым!