Поиск

(M-Base/Modern Creative/Crossover) Steve Coleman and Five Elements - Weaving Symbolics - 2006, FLAC (tracks+.cue), lossless

Треклист:
Steve Coleman and Five Elements / Weaving Symbolics
Жанр: M-Base/Modern Creative/Crossover
Страна-производитель диска: France
Год издания: 2006
Издатель (лейбл): Label Bleu
Номер по каталогу: 844360
Страна: USA
Аудиокодек: FLAC (*.flac)
Тип рипа: tracks+.cue
Битрейт аудио: lossless
Продолжительность: 58:46/59:31
Источник (релизер): funky_cat
Наличие сканов в содержимом раздачи: нет
Треклист:
CD 1:
1 Ritual - Solo (Aether) 02:48
2 Tehu Seven 05:26
3 Tetragrams / Astrology I 09:42
4 Circle Weaving Thirteen 03:54
5 Ritual - Duo (Water) 02:35
6 Gregorian 04:40
7 Unction 07:08
8 Triad Mutations II 04:48
9 Ritual - Trio (Air) 03:33
10 Li Bai / Astrology II 10:34
11 Triad Mutations I 03:31
CD 2:
1 Ritual - Trio (Earth) 08:52
2 Tehu Six 04:21
3 Glyphs In Motion 13:59
4 Triad Mutations III 03:03
5 Ritual - Septet (Fire) 06:28
6 Numerology 05:47
7 Trigrams / Astrology III 08:05
8 Circle Weaving Eleven 08:53
 
Лог создания рипа

 
CD 1
X Lossless Decoder version 20120609 (141.0)
XLD extraction logfile from 2012-06-14 16:17:31 +0400
Steve Coleman / Weaving Symbolics
Used drive : HL-DT-ST DVDRW GS23N (revision SB00)
Ripper mode : CDParanoia III 10.2
Disable audio cache : OK for the drive with a cache less than 2750KiB
Make use of C2 pointers : NO
Read offset correction : 667
Max retry count : 10
Gap status : Analyzed, Appended
TOC of the extracted CD
Track | Start | Length | Start sector | End sector
---------------------------------------------------------
1 | 00:00:00 | 02:48:72 | 0 | 12671
2 | 02:48:72 | 05:26:24 | 12672 | 37145
3 | 08:15:21 | 09:42:41 | 37146 | 80836
4 | 17:57:62 | 03:54:46 | 80837 | 98432
5 | 21:52:33 | 02:35:23 | 98433 | 110080
6 | 24:27:56 | 04:40:70 | 110081 | 131150
7 | 29:08:51 | 07:08:47 | 131151 | 163297
8 | 36:17:23 | 04:48:59 | 163298 | 184956
9 | 41:06:07 | 03:33:56 | 184957 | 200987
10 | 44:39:63 | 10:34:33 | 200988 | 248570
11 | 55:14:21 | 03:31:55 | 248571 | 264450
List of alternate offset correction values
# | Absolute | Relative | Confidence
------------------------------------------
1 | 661 | -6 | 7
AccurateRip Summary (DiscID: 001762a9-00ccc391-9e0dc60b)
Track 01 : OK (v1, confidence 7/7, with different offset)
Track 02 : OK (v1, confidence 7/7, with different offset)
Track 03 : OK (v1, confidence 7/7, with different offset)
Track 04 : OK (v1, confidence 7/7, with different offset)
Track 05 : OK (v1, confidence 7/7, with different offset)
Track 06 : OK (v1, confidence 7/7, with different offset)
Track 07 : OK (v1, confidence 7/7, with different offset)
Track 08 : OK (v1, confidence 7/7, with different offset)
Track 09 : OK (v1, confidence 6/6, with different offset)
Track 10 : OK (v1, confidence 6/6, with different offset)
Track 11 : OK (v1, confidence 6/6, with different offset)
->All tracks accurately ripped.
All Tracks
Album gain : -7.62 dB
Peak : 0.988586
Statistics
Read error : 0
Skipped (treated as error) : 0
Edge jitter error (maybe fixed) : 0
Atom jitter error (maybe fixed) : 0
Drift error (maybe fixed) : 0
Dropped bytes error (maybe fixed) : 0
Duplicated bytes error (maybe fixed) : 0
Track 01
Filename : /Users/olegbelov/Downloads/Steve Coleman and Five Elements - Weaving Symbolics (2006)/CD 1/01 - Ritual - Solo (Aether).flac
Pre-gap length : 00:02:00
Track gain : -4.92 dB
Peak : 0.943085
CRC32 hash (test run) : 8443CBEC
CRC32 hash : 8443CBEC
CRC32 hash (skip zero) : 6A849377
AccurateRip v1 signature : 8A0F70E9 (513E58E2 w/correction)
AccurateRip v2 signature : D049A87D
->Accurately ripped with different offset (v1, confidence 7/7, offset -6)
Statistics
Read error : 0
Skipped (treated as error) : 0
Edge jitter error (maybe fixed) : 0
Atom jitter error (maybe fixed) : 0
Drift error (maybe fixed) : 0
Dropped bytes error (maybe fixed) : 0
Duplicated bytes error (maybe fixed) : 0
Inconsistency in error sectors : 0
Track 02
Filename : /Users/olegbelov/Downloads/Steve Coleman and Five Elements - Weaving Symbolics (2006)/CD 1/02 - Tehu Seven.flac
Track gain : -6.30 dB
Peak : 0.988556
CRC32 hash (test run) : 6B6B68DE
CRC32 hash : 6B6B68DE
CRC32 hash (skip zero) : D81892CF
AccurateRip v1 signature : 461E5177 (524192AD w/correction)
AccurateRip v2 signature : 52B084A0
->Accurately ripped with different offset (v1, confidence 7/7, offset -6)
Statistics
Read error : 0
Skipped (treated as error) : 0
Edge jitter error (maybe fixed) : 0
Atom jitter error (maybe fixed) : 0
Drift error (maybe fixed) : 0
Dropped bytes error (maybe fixed) : 0
Duplicated bytes error (maybe fixed) : 0
Inconsistency in error sectors : 0
Track 03
Filename : /Users/olegbelov/Downloads/Steve Coleman and Five Elements - Weaving Symbolics (2006)/CD 1/03 - Tetragrams / Astrology I.flac
Track gain : -7.53 dB
Peak : 0.988586
CRC32 hash (test run) : B3F79CBA
CRC32 hash : B3F79CBA
CRC32 hash (skip zero) : 9BA4C7A7
AccurateRip v1 signature : A3CCDAE9 (8B017F5C w/correction)
AccurateRip v2 signature : 2A800A88
->Accurately ripped with different offset (v1, confidence 7/7, offset -6)
Statistics
Read error : 0
Skipped (treated as error) : 0
Edge jitter error (maybe fixed) : 0
Atom jitter error (maybe fixed) : 0
Drift error (maybe fixed) : 0
Dropped bytes error (maybe fixed) : 0
Duplicated bytes error (maybe fixed) : 0
Inconsistency in error sectors : 0
Track 04
Filename : /Users/olegbelov/Downloads/Steve Coleman and Five Elements - Weaving Symbolics (2006)/CD 1/04 - Circle Weaving Thirteen.flac
Track gain : -8.39 dB
Peak : 0.988525
CRC32 hash (test run) : 6AE55FA6
CRC32 hash : 6AE55FA6
CRC32 hash (skip zero) : 7A7883E1
AccurateRip v1 signature : EDE6FAEE (1F1A528D w/correction)
AccurateRip v2 signature : 72A1C51D
->Accurately ripped with different offset (v1, confidence 7/7, offset -6)
Statistics
Read error : 0
Skipped (treated as error) : 0
Edge jitter error (maybe fixed) : 0
Atom jitter error (maybe fixed) : 0
Drift error (maybe fixed) : 0
Dropped bytes error (maybe fixed) : 0
Duplicated bytes error (maybe fixed) : 0
Inconsistency in error sectors : 0
Track 05
Filename : /Users/olegbelov/Downloads/Steve Coleman and Five Elements - Weaving Symbolics (2006)/CD 1/05 - Ritual - Duo (Water).flac
Track gain : -5.56 dB
Peak : 0.986938
CRC32 hash (test run) : 7D3869DC
CRC32 hash : 7D3869DC
CRC32 hash (skip zero) : B3B5577F
AccurateRip v1 signature : 8EDC3445 (58278297 w/correction)
AccurateRip v2 signature : A590716A
->Accurately ripped with different offset (v1, confidence 7/7, offset -6)
Statistics
Read error : 0
Skipped (treated as error) : 0
Edge jitter error (maybe fixed) : 0
Atom jitter error (maybe fixed) : 0
Drift error (maybe fixed) : 0
Dropped bytes error (maybe fixed) : 0
Duplicated bytes error (maybe fixed) : 0
Inconsistency in error sectors : 0
Track 06
Filename : /Users/olegbelov/Downloads/Steve Coleman and Five Elements - Weaving Symbolics (2006)/CD 1/06 - Gregorian.flac
Track gain : -8.10 dB
Peak : 0.988556
CRC32 hash (test run) : 84AC4EE9
CRC32 hash : 84AC4EE9
CRC32 hash (skip zero) : 0809621F
AccurateRip v1 signature : 8896D82D (15EE0BA3 w/correction)
AccurateRip v2 signature : EE61A3CE
->Accurately ripped with different offset (v1, confidence 7/7, offset -6)
Statistics
Read error : 0
Skipped (treated as error) : 0
Edge jitter error (maybe fixed) : 0
Atom jitter error (maybe fixed) : 0
Drift error (maybe fixed) : 0
Dropped bytes error (maybe fixed) : 0
Duplicated bytes error (maybe fixed) : 0
Inconsistency in error sectors : 0
Track 07
Filename : /Users/olegbelov/Downloads/Steve Coleman and Five Elements - Weaving Symbolics (2006)/CD 1/07 - Unction.flac
Track gain : -5.50 dB
Peak : 0.988556
CRC32 hash (test run) : 6621A646
CRC32 hash : 6621A646
CRC32 hash (skip zero) : 1D2277EB
AccurateRip v1 signature : D97B9F64 (BA4B2C65 w/correction)
AccurateRip v2 signature : B08B14A9
->Accurately ripped with different offset (v1, confidence 7/7, offset -6)
Statistics
Read error : 0
Skipped (treated as error) : 0
Edge jitter error (maybe fixed) : 0
Atom jitter error (maybe fixed) : 0
Drift error (maybe fixed) : 0
Dropped bytes error (maybe fixed) : 0
Duplicated bytes error (maybe fixed) : 0
Inconsistency in error sectors : 0
Track 08
Filename : /Users/olegbelov/Downloads/Steve Coleman and Five Elements - Weaving Symbolics (2006)/CD 1/08 - Triad Mutations II.flac
Track gain : -9.02 dB
Peak : 0.988556
CRC32 hash (test run) : E1E36337
CRC32 hash : E1E36337
CRC32 hash (skip zero) : 1E66A84B
AccurateRip v1 signature : 0F5BE9C8 (2C98FEB5 w/correction)
AccurateRip v2 signature : 4526DE5C
->Accurately ripped with different offset (v1, confidence 7/7, offset -6)
Statistics
Read error : 0
Skipped (treated as error) : 0
Edge jitter error (maybe fixed) : 0
Atom jitter error (maybe fixed) : 0
Drift error (maybe fixed) : 0
Dropped bytes error (maybe fixed) : 0
Duplicated bytes error (maybe fixed) : 0
Inconsistency in error sectors : 0
Track 09
Filename : /Users/olegbelov/Downloads/Steve Coleman and Five Elements - Weaving Symbolics (2006)/CD 1/09 - Ritual - Trio (Air).flac
Track gain : -6.48 dB
Peak : 0.988525
CRC32 hash (test run) : 108728A9
CRC32 hash : 108728A9
CRC32 hash (skip zero) : 589D4194
AccurateRip v1 signature : D6C8B13B (51AE462A w/correction)
AccurateRip v2 signature : 6DBBB899
->Accurately ripped with different offset (v1, confidence 6/6, offset -6)
Statistics
Read error : 0
Skipped (treated as error) : 0
Edge jitter error (maybe fixed) : 0
Atom jitter error (maybe fixed) : 0
Drift error (maybe fixed) : 0
Dropped bytes error (maybe fixed) : 0
Duplicated bytes error (maybe fixed) : 0
Inconsistency in error sectors : 0
Track 10
Filename : /Users/olegbelov/Downloads/Steve Coleman and Five Elements - Weaving Symbolics (2006)/CD 1/10 - Li Bai / Astrology II.flac
Track gain : -6.53 dB
Peak : 0.988556
CRC32 hash (test run) : D1B7670A
CRC32 hash : D1B7670A
CRC32 hash (skip zero) : 150F7E19
AccurateRip v1 signature : D02D94A1 (BC481FD3 w/correction)
AccurateRip v2 signature : 7C9CDCF8
->Accurately ripped with different offset (v1, confidence 6/6, offset -6)
Statistics
Read error : 0
Skipped (treated as error) : 0
Edge jitter error (maybe fixed) : 0
Atom jitter error (maybe fixed) : 0
Drift error (maybe fixed) : 0
Dropped bytes error (maybe fixed) : 0
Duplicated bytes error (maybe fixed) : 0
Inconsistency in error sectors : 0
Track 11
Filename : /Users/olegbelov/Downloads/Steve Coleman and Five Elements - Weaving Symbolics (2006)/CD 1/11 - Triad Mutations I.flac
Track gain : -8.95 dB
Peak : 0.988556
CRC32 hash (test run) : 74E84070
CRC32 hash : 74E84070
CRC32 hash (skip zero) : 020F7E94
AccurateRip v1 signature : A83C9BA8 (E568627F w/correction)
AccurateRip v2 signature : 662E2308
->Accurately ripped with different offset (v1, confidence 6/6, offset -6)
Statistics
Read error : 0
Skipped (treated as error) : 0
Edge jitter error (maybe fixed) : 0
Atom jitter error (maybe fixed) : 0
Drift error (maybe fixed) : 0
Dropped bytes error (maybe fixed) : 0
Duplicated bytes error (maybe fixed) : 0
Inconsistency in error sectors : 0
No errors occurred
End of status report
 
CD 2
X Lossless Decoder version 20120609 (141.0)
XLD extraction logfile from 2012-06-14 17:09:34 +0400
Steve Coleman And Five Elements / Weaving Symbolics
Used drive : HL-DT-ST DVDRW GS23N (revision SB00)
Ripper mode : XLD Secure Ripper
Disable audio cache : OK for the drive with a cache less than 1375KiB
Make use of C2 pointers : NO
Read offset correction : 667
Max retry count : 10
Gap status : Analyzed, Appended
TOC of the extracted CD
Track | Start | Length | Start sector | End sector
---------------------------------------------------------
1 | 00:00:00 | 08:52:36 | 0 | 39935
2 | 08:52:36 | 04:21:09 | 39936 | 59519
3 | 13:13:45 | 13:59:14 | 59520 | 122458
4 | 27:12:59 | 03:03:19 | 122459 | 136202
5 | 30:16:03 | 06:28:72 | 136203 | 165374
6 | 36:45:00 | 05:47:25 | 165375 | 191424
7 | 42:32:25 | 08:05:59 | 191425 | 227858
8 | 50:38:09 | 08:53:33 | 227859 | 267866
List of alternate offset correction values
# | Absolute | Relative | Confidence
------------------------------------------
1 | 661 | -6 | 8
AccurateRip Summary (DiscID: 00127914-0079ff30-650df308)
Track 01 : OK (v1, confidence 8/8, with different offset)
Track 02 : OK (v1, confidence 8/8, with different offset)
Track 03 : OK (v1, confidence 8/8, with different offset)
Track 04 : OK (v1, confidence 8/8, with different offset)
Track 05 : OK (v1, confidence 8/8, with different offset)
Track 06 : OK (v1, confidence 8/8, with different offset)
Track 07 : OK (v1, confidence 8/8, with different offset)
Track 08 : OK (v1, confidence 7/7, with different offset)
->All tracks accurately ripped.
All Tracks
Album gain : -7.68 dB
Peak : 0.988556
Statistics
Read error : 0
Jitter error (maybe fixed) : 0
Retry sector count : 0
Damaged sector count : 0
Track 01
Filename : /Users/olegbelov/Downloads/Steve Coleman and Five Elements - Weaving Symbolics (2006)/CD 2/01 - Ritual - Trio (Earth).flac
Pre-gap length : 00:02:00
Track gain : -7.64 dB
Peak : 0.988556
CRC32 hash (test run) : 14B3B540
CRC32 hash : 14B3B540
CRC32 hash (skip zero) : AEC15DEC
AccurateRip v1 signature : 202BD58B (0317D4A2 w/correction)
AccurateRip v2 signature : 51EEB910
->Accurately ripped with different offset (v1, confidence 8/8, offset -6)
Statistics
Read error : 0
Jitter error (maybe fixed) : 0
Retry sector count : 0
Damaged sector count : 0
Track 02
Filename : /Users/olegbelov/Downloads/Steve Coleman and Five Elements - Weaving Symbolics (2006)/CD 2/02 - Tehu Six.flac
Track gain : -8.26 dB
Peak : 0.988525
CRC32 hash (test run) : 27F5ED4C
CRC32 hash : 27F5ED4C
CRC32 hash (skip zero) : CB5A772F
AccurateRip v1 signature : 8B78ABC0 (19D782AE w/correction)
AccurateRip v2 signature : 217B3792
->Accurately ripped with different offset (v1, confidence 8/8, offset -6)
Statistics
Read error : 0
Jitter error (maybe fixed) : 0
Retry sector count : 0
Damaged sector count : 0
Track 03
Filename : /Users/olegbelov/Downloads/Steve Coleman and Five Elements - Weaving Symbolics (2006)/CD 2/03 - Glyphs In Motion.flac
Track gain : -7.03 dB
Peak : 0.988556
CRC32 hash (test run) : 63D8B620
CRC32 hash : 63D8B620
CRC32 hash (skip zero) : D1C8A4A1
AccurateRip v1 signature : 140A9ECF (143C4765 w/correction)
AccurateRip v2 signature : DBE67998
->Accurately ripped with different offset (v1, confidence 8/8, offset -6)
Statistics
Read error : 0
Jitter error (maybe fixed) : 0
Retry sector count : 0
Damaged sector count : 0
Track 04
Filename : /Users/olegbelov/Downloads/Steve Coleman and Five Elements - Weaving Symbolics (2006)/CD 2/04 - Triad Mutations III.flac
Track gain : -8.57 dB
Peak : 0.988556
CRC32 hash (test run) : 155705B4
CRC32 hash : 155705B4
CRC32 hash (skip zero) : 5FFD0F43
AccurateRip v1 signature : 7C195C90 (192620B8 w/correction)
AccurateRip v2 signature : 16A393D9
->Accurately ripped with different offset (v1, confidence 8/8, offset -6)
Statistics
Read error : 0
Jitter error (maybe fixed) : 0
Retry sector count : 0
Damaged sector count : 0
Track 05
Filename : /Users/olegbelov/Downloads/Steve Coleman and Five Elements - Weaving Symbolics (2006)/CD 2/05 - Ritual - Septet (Fire).flac
Track gain : -6.01 dB
Peak : 0.988525
CRC32 hash (test run) : 2B068B99
CRC32 hash : 2B068B99
CRC32 hash (skip zero) : 681FB1D8
AccurateRip v1 signature : 0E5D2252 (8BFCC662 w/correction)
AccurateRip v2 signature : 532592C3
->Accurately ripped with different offset (v1, confidence 8/8, offset -6)
Statistics
Read error : 0
Jitter error (maybe fixed) : 0
Retry sector count : 0
Damaged sector count : 0
Track 06
Filename : /Users/olegbelov/Downloads/Steve Coleman and Five Elements - Weaving Symbolics (2006)/CD 2/06 - Numerology.flac
Track gain : -7.53 dB
Peak : 0.988525
CRC32 hash (test run) : AE817DEF
CRC32 hash : AE817DEF
CRC32 hash (skip zero) : 741F67C9
AccurateRip v1 signature : 39D211A2 (E06D9E68 w/correction)
AccurateRip v2 signature : 7D6A7FF3
->Accurately ripped with different offset (v1, confidence 8/8, offset -6)
Statistics
Read error : 0
Jitter error (maybe fixed) : 0
Retry sector count : 0
Damaged sector count : 0
Track 07
Filename : /Users/olegbelov/Downloads/Steve Coleman and Five Elements - Weaving Symbolics (2006)/CD 2/07 - Trigrams / Astrology III.flac
Track gain : -6.60 dB
Peak : 0.988556
CRC32 hash (test run) : 4F44404B
CRC32 hash : 4F44404B
CRC32 hash (skip zero) : C26EB58B
AccurateRip v1 signature : 43A54244 (A2BF5978 w/correction)
AccurateRip v2 signature : BFB1DCD5
->Accurately ripped with different offset (v1, confidence 8/8, offset -6)
Statistics
Read error : 0
Jitter error (maybe fixed) : 0
Retry sector count : 0
Damaged sector count : 0
Track 08
Filename : /Users/olegbelov/Downloads/Steve Coleman and Five Elements - Weaving Symbolics (2006)/CD 2/08 - Circle Weaving Eleven.flac
Track gain : -8.91 dB
Peak : 0.988556
CRC32 hash (test run) : B68EA21D
CRC32 hash : B68EA21D
CRC32 hash (skip zero) : 52C292FE
AccurateRip v1 signature : 94E5AB11 (60176E84 w/correction)
AccurateRip v2 signature : C5F37513
->Accurately ripped with different offset (v1, confidence 7/7, offset -6)
Statistics
Read error : 0
Jitter error (maybe fixed) : 0
Retry sector count : 0
Damaged sector count : 0
No errors occurred
End of status report
 
Содержание индексной карты (.CUE)

 
CD 1
TITLE "Weaving Symbolics"
PERFORMER "Steve Coleman"
REM GENRE "Jazz"
REM DATE "2006"
REM DISCNUMBER 1
REM TOTALDISCS 2
REM DISCID 9E0DC60B
REM REPLAYGAIN_ALBUM_GAIN -7.62 dB
REM REPLAYGAIN_ALBUM_PEAK 0.988586
FILE "01 - Ritual - Solo (Aether).flac" WAVE
TRACK 01 AUDIO
TITLE "Ritual - Solo (Aether)"
SONGWRITER "Steve Coleman"
REM REPLAYGAIN_TRACK_GAIN -4.92 dB
REM REPLAYGAIN_TRACK_PEAK 0.943085
INDEX 01 00:00:00
FILE "02 - Tehu Seven.flac" WAVE
TRACK 02 AUDIO
TITLE "Tehu Seven"
SONGWRITER "Steve Coleman"
REM REPLAYGAIN_TRACK_GAIN -6.30 dB
REM REPLAYGAIN_TRACK_PEAK 0.988556
INDEX 01 00:00:00
FILE "03 - Tetragrams / Astrology I.flac" WAVE
TRACK 03 AUDIO
TITLE "Tetragrams / Astrology I"
SONGWRITER "Steve Coleman"
REM REPLAYGAIN_TRACK_GAIN -7.53 dB
REM REPLAYGAIN_TRACK_PEAK 0.988586
INDEX 01 00:00:00
FILE "04 - Circle Weaving Thirteen.flac" WAVE
TRACK 04 AUDIO
TITLE "Circle Weaving Thirteen"
SONGWRITER "Steve Coleman"
REM REPLAYGAIN_TRACK_GAIN -8.39 dB
REM REPLAYGAIN_TRACK_PEAK 0.988525
INDEX 01 00:00:00
FILE "05 - Ritual - Duo (Water).flac" WAVE
TRACK 05 AUDIO
TITLE "Ritual - Duo (Water)"
SONGWRITER "Steve Coleman"
REM REPLAYGAIN_TRACK_GAIN -5.56 dB
REM REPLAYGAIN_TRACK_PEAK 0.986938
INDEX 01 00:00:00
FILE "06 - Gregorian.flac" WAVE
TRACK 06 AUDIO
TITLE "Gregorian"
SONGWRITER "Steve Coleman"
REM REPLAYGAIN_TRACK_GAIN -8.10 dB
REM REPLAYGAIN_TRACK_PEAK 0.988556
INDEX 01 00:00:00
FILE "07 - Unction.flac" WAVE
TRACK 07 AUDIO
TITLE "Unction"
SONGWRITER "Steve Coleman"
REM REPLAYGAIN_TRACK_GAIN -5.50 dB
REM REPLAYGAIN_TRACK_PEAK 0.988556
INDEX 01 00:00:00
FILE "08 - Triad Mutations II.flac" WAVE
TRACK 08 AUDIO
TITLE "Triad Mutations II"
SONGWRITER "Steve Coleman"
REM REPLAYGAIN_TRACK_GAIN -9.02 dB
REM REPLAYGAIN_TRACK_PEAK 0.988556
INDEX 01 00:00:00
FILE "09 - Ritual - Trio (Air).flac" WAVE
TRACK 09 AUDIO
TITLE "Ritual - Trio (Air)"
SONGWRITER "Steve Coleman"
REM REPLAYGAIN_TRACK_GAIN -6.48 dB
REM REPLAYGAIN_TRACK_PEAK 0.988525
INDEX 01 00:00:00
FILE "10 - Li Bai / Astrology II.flac" WAVE
TRACK 10 AUDIO
TITLE "Li Bai / Astrology II"
SONGWRITER "Jen Shyu"
REM REPLAYGAIN_TRACK_GAIN -6.53 dB
REM REPLAYGAIN_TRACK_PEAK 0.988556
INDEX 01 00:00:00
FILE "11 - Triad Mutations I.flac" WAVE
TRACK 11 AUDIO
TITLE "Triad Mutations I"
SONGWRITER "Steve Coleman"
REM REPLAYGAIN_TRACK_GAIN -8.95 dB
REM REPLAYGAIN_TRACK_PEAK 0.988556
INDEX 01 00:00:00
 
CD 2
TITLE "Weaving Symbolics"
PERFORMER "Steve Coleman And Five Elements"
REM GENRE "Jazz"
REM DATE "2006"
REM DISCNUMBER 2
REM TOTALDISCS 2
REM DISCID 650DF308
REM REPLAYGAIN_ALBUM_GAIN -7.68 dB
REM REPLAYGAIN_ALBUM_PEAK 0.988556
FILE "01 - Ritual - Trio (Earth).flac" WAVE
TRACK 01 AUDIO
TITLE "Ritual - Trio (Earth)"
SONGWRITER "Steve Coleman"
REM REPLAYGAIN_TRACK_GAIN -7.64 dB
REM REPLAYGAIN_TRACK_PEAK 0.988556
INDEX 01 00:00:00
FILE "02 - Tehu Six.flac" WAVE
TRACK 02 AUDIO
TITLE "Tehu Six"
SONGWRITER "Steve Coleman"
REM REPLAYGAIN_TRACK_GAIN -8.26 dB
REM REPLAYGAIN_TRACK_PEAK 0.988525
INDEX 01 00:00:00
FILE "03 - Glyphs In Motion.flac" WAVE
TRACK 03 AUDIO
TITLE "Glyphs In Motion"
SONGWRITER "Steve Coleman"
REM REPLAYGAIN_TRACK_GAIN -7.03 dB
REM REPLAYGAIN_TRACK_PEAK 0.988556
INDEX 01 00:00:00
FILE "04 - Triad Mutations III.flac" WAVE
TRACK 04 AUDIO
TITLE "Triad Mutations III"
SONGWRITER "Steve Coleman"
REM REPLAYGAIN_TRACK_GAIN -8.57 dB
REM REPLAYGAIN_TRACK_PEAK 0.988556
INDEX 01 00:00:00
FILE "05 - Ritual - Septet (Fire).flac" WAVE
TRACK 05 AUDIO
TITLE "Ritual - Septet (Fire)"
SONGWRITER "Steve Coleman"
REM REPLAYGAIN_TRACK_GAIN -6.01 dB
REM REPLAYGAIN_TRACK_PEAK 0.988525
INDEX 01 00:00:00
FILE "06 - Numerology.flac" WAVE
TRACK 06 AUDIO
TITLE "Numerology"
SONGWRITER "Steve Coleman"
REM REPLAYGAIN_TRACK_GAIN -7.53 dB
REM REPLAYGAIN_TRACK_PEAK 0.988525
INDEX 01 00:00:00
FILE "07 - Trigrams / Astrology III.flac" WAVE
TRACK 07 AUDIO
TITLE "Trigrams / Astrology III"
SONGWRITER "Steve Coleman"
REM REPLAYGAIN_TRACK_GAIN -6.60 dB
REM REPLAYGAIN_TRACK_PEAK 0.988556
INDEX 01 00:00:00
FILE "08 - Circle Weaving Eleven.flac" WAVE
TRACK 08 AUDIO
TITLE "Circle Weaving Eleven"
SONGWRITER "Steve Coleman"
REM REPLAYGAIN_TRACK_GAIN -8.91 dB
REM REPLAYGAIN_TRACK_PEAK 0.988556
INDEX 01 00:00:00
 
Состав
Steve Coleman - Alto Saxophone
Tim Albright - Trombone
Jonathan Finlayson - Trumpet
Marcus Gilmore - Drums
Malik Mezzadri = Flute
Jason Moran - Piano
Sarah Murcia - Bass
Eric Revis - Bass
Nei Sacramento - Percussion
Jen Shyu - Vocals
Luciano Silva - Percussion
Anthony Tidd - Bass
Nelson Veras - Guitar
Reggie Washington - Bass
Jeff "Tain" Watts - Drums
14:07
397
Нет комментариев. Ваш будет первым!