Поиск

(Latun Jazz) VA — Tropicana — 1993, FLAC (tracks+.cue), lossless

(Latun Jazz) VA — Tropicana — 1993, FLAC (tracks+.cue), lossless
Треклист:
Various — Tropicana
Жанр: Latun Jazz
Год издания диска: 1993
Издатель (лейбл): Sarabandas
Номер по каталогу: CD 62046
Аудиокодек: FLAC (*.flac)
Тип рипа: tracks+.cue
Битрейт аудио: lossless
Продолжительность: 46:05
Риппер: alekow
Наличие сканов в содержимом раздачи: да
Треклист:
01. Bamboleo (Fania All Stars) (5:29)
02. Aquarius / Let The Sun Shine In (Celia Cruz Con Tito Puente) (3:39)
03. El Manicero (Candido) (2:13)
04. Pete's Boogaloo (Pete Rodriquez) (3:04)
05. Tito On Timbales (Tito Puente) (3:02)
06. Yo Regresare (Celia Cruz Con Tito Puente) (3:13)
07. Alex Mambo (Machito) (3:18)
08. Vuela La Paloma (Tito Rodriguez) (5:51)
09. Descarga (Johnny Colon) (6:46)
10. Corazon Contento (Celia Cruz Con Tito Puente) (2:18)
11. Caso Perdido (Machito) (4:20)
12. Quimbo Quimbumbia (Celia Cruz Con Tito Puente) (2:51)
 
 
Лог создания рипа
Exact Audio Copy V1.0 beta 1 from 15. November 2010
EAC extraction logfile from 4. June 2011, 13:18
VARIOUS ARTISTS / Tropicana
Used drive : TSSTcorpCD/DVDW SH-S182D Adapter: 1 ID: 0
Read mode : Secure
Utilize accurate stream : Yes
Defeat audio cache : Yes
Make use of C2 pointers : No
Read offset correction : 6
Overread into Lead-In and Lead-Out : No
Fill up missing offset samples with silence : Yes
Delete leading and trailing silent blocks : No
Null samples used in CRC calculations : Yes
Used interface : Native Win32 interface for Win NT & 2000
Gap handling : Appended to previous track
Used output format : User Defined Encoder
Selected bitrate : 1024 kBit/s
Quality : High
Add ID3 tag : No
Command line compressor : C:\Program Files\Exact Audio Copy\Flac\flac.exe
Additional command line options : -5 -V -T "ARTIST=%a" -T "TITLE=%t" -T "ALBUM=%g" -T "DATE=%y" -T "TRACKNUMBER=%n" -T "GENRE=%m" -T "COMMENT=%e" %s -o %d
TOC of the extracted CD
Track | Start | Length | Start sector | End sector
---------------------------------------------------------
1 | 0:00.00 | 5:29.30 | 0 | 24704
2 | 5:29.30 | 3:39.30 | 24705 | 41159
3 | 9:08.60 | 2:13.07 | 41160 | 51141
4 | 11:21.67 | 3:03.60 | 51142 | 64926
5 | 14:25.52 | 3:01.38 | 64927 | 78539
6 | 17:27.15 | 3:13.30 | 78540 | 93044
7 | 20:40.45 | 3:18.12 | 93045 | 107906
8 | 23:58.57 | 5:51.20 | 107907 | 134251
9 | 29:50.02 | 6:45.43 | 134252 | 164669
10 | 36:35.45 | 2:18.17 | 164670 | 175036
11 | 38:53.62 | 4:19.58 | 175037 | 194519
12 | 43:13.45 | 2:51.27 | 194520 | 207371
Track 1
Filename C:\New Folder\01. Fania All Stars - Bamboleo.wav
Pre-gap length 0:00:02.00
Peak level 63.8 %
Extraction speed 2.0 X
Track quality 99.9 %
Test CRC 400A01E6
Copy CRC 400A01E6
Accurately ripped (confidence 2) [F69223D1]
Copy OK
Track 2
Filename C:\New Folder\02. Celia Cruz Con Tito Puente - Aquarius- Let The Sun Shine In.wav
Peak level 73.4 %
Extraction speed 3.5 X
Track quality 100.0 %
Test CRC 4BC702E1
Copy CRC 4BC702E1
Accurately ripped (confidence 2) [393B6E9A]
Copy OK
Track 3
Filename C:\New Folder\03. Candido - El Manicero.wav
Peak level 64.8 %
Extraction speed 2.5 X
Track quality 100.0 %
Test CRC AA78CB1C
Copy CRC AA78CB1C
Accurately ripped (confidence 2) [335B2D38]
Copy OK
Track 4
Filename C:\New Folder\04. Pete Rodriquez - Pete's Boogaloo.wav
Peak level 77.2 %
Extraction speed 3.9 X
Track quality 100.0 %
Test CRC 66EA266B
Copy CRC 66EA266B
Accurately ripped (confidence 2) [0431AA66]
Copy OK
Track 5
Filename C:\New Folder\05. Tito Puente - Tito On Timbales.wav
Peak level 72.7 %
Extraction speed 2.7 X
Track quality 100.0 %
Test CRC C84DA2CC
Copy CRC C84DA2CC
Accurately ripped (confidence 2) [BE0A7F31]
Copy OK
Track 6
Filename C:\New Folder\06. Celia Cruz Con Tito Puente - Yo Regresare.wav
Peak level 65.2 %
Extraction speed 5.1 X
Track quality 100.0 %
Test CRC 56ED7B63
Copy CRC 56ED7B63
Accurately ripped (confidence 2) [D84976FC]
Copy OK
Track 7
Filename C:\New Folder\07. Machito - Alex Mambo.wav
Peak level 61.7 %
Extraction speed 5.5 X
Track quality 100.0 %
Test CRC B29FBBD2
Copy CRC B29FBBD2
Accurately ripped (confidence 2) [E8B220AE]
Copy OK
Track 8
Filename C:\New Folder\08. Tito Rodriguez - Vuela La Paloma.wav
Peak level 74.7 %
Extraction speed 6.2 X
Track quality 100.0 %
Test CRC DD5A5FD4
Copy CRC DD5A5FD4
Accurately ripped (confidence 2) [774D3842]
Copy OK
Track 9
Filename C:\New Folder\09. Johnny Colon - Descarga.wav
Peak level 83.6 %
Extraction speed 6.7 X
Track quality 100.0 %
Test CRC 9D05DFB0
Copy CRC 9D05DFB0
Accurately ripped (confidence 2) [B6B50F79]
Copy OK
Track 10
Filename C:\New Folder\10. Celia Cruz Con Tito Puente - Corazon Contento.wav
Peak level 74.4 %
Extraction speed 6.0 X
Track quality 100.0 %
Test CRC 3A62BEEB
Copy CRC 3A62BEEB
Accurately ripped (confidence 2) [2BB1FF6B]
Copy OK
Track 11
Filename C:\New Folder\11. Machito - Caso Perdido.wav
Peak level 62.2 %
Extraction speed 6.7 X
Track quality 100.0 %
Test CRC 30348774
Copy CRC 30348774
Accurately ripped (confidence 2) [FCBDCE46]
Copy OK
Track 12
Filename C:\New Folder\12. Celia Cruz Con Tito Puente - Quimbo Quimbumbia.wav
Peak level 74.4 %
Extraction speed 5.6 X
Track quality 99.9 %
Test CRC C3D66802
Copy CRC C3D66802
Track not present in AccurateRip database
Copy OK
11 track(s) accurately ripped
1 track(s) not present in the AccurateRip database
Some tracks could not be verified as accurate
No errors occurred
End of status report
==== Log checksum 6B7CFD82FFE015820E21B6A3DAF46EEF904EB53B610817AB33A9815705F6B1ED ====
 
Содержание индексной карты (.CUE)
REM GENRE Latin
REM DATE 1993
REM DISCID A10ACC0C
REM COMMENT "ExactAudioCopy v1.0b1"
PERFORMER "VARIOUS ARTISTS"
TITLE "Tropicana"
FILE "01. Fania All Stars - Bamboleo.wav" WAVE
TRACK 01 AUDIO
TITLE "Bamboleo"
PERFORMER "Fania All Stars"
INDEX 01 00:00:00
FILE "02. Celia Cruz Con Tito Puente - Aquarius- Let The Sun Shine In.wav" WAVE
TRACK 02 AUDIO
TITLE "Aquarius- Let The Sun Shine In"
PERFORMER "Celia Cruz Con Tito Puente"
INDEX 01 00:00:00
FILE "03. Candido - El Manicero.wav" WAVE
TRACK 03 AUDIO
TITLE "El Manicero"
PERFORMER "Candido"
INDEX 01 00:00:00
FILE "04. Pete Rodriquez - Pete's Boogaloo.wav" WAVE
TRACK 04 AUDIO
TITLE "Pete's Boogaloo"
PERFORMER "Pete Rodriquez"
INDEX 01 00:00:00
FILE "05. Tito Puente - Tito On Timbales.wav" WAVE
TRACK 05 AUDIO
TITLE "Tito On Timbales"
PERFORMER "Tito Puente"
INDEX 01 00:00:00
FILE "06. Celia Cruz Con Tito Puente - Yo Regresare.wav" WAVE
TRACK 06 AUDIO
TITLE "Yo Regresare"
PERFORMER "Celia Cruz Con Tito Puente"
INDEX 01 00:00:00
FILE "07. Machito - Alex Mambo.wav" WAVE
TRACK 07 AUDIO
TITLE "Alex Mambo"
PERFORMER "Machito"
INDEX 01 00:00:00
FILE "08. Tito Rodriguez - Vuela La Paloma.wav" WAVE
TRACK 08 AUDIO
TITLE "Vuela La Paloma"
PERFORMER "Tito Rodriguez"
INDEX 01 00:00:00
FILE "09. Johnny Colon - Descarga.wav" WAVE
TRACK 09 AUDIO
TITLE "Descarga"
PERFORMER "Johnny Colon"
INDEX 01 00:00:00
FILE "10. Celia Cruz Con Tito Puente - Corazon Contento.wav" WAVE
TRACK 10 AUDIO
TITLE "Corazon Contento"
PERFORMER "Celia Cruz Con Tito Puente"
INDEX 01 00:00:00
FILE "11. Machito - Caso Perdido.wav" WAVE
TRACK 11 AUDIO
TITLE "Caso Perdido"
PERFORMER "Machito"
INDEX 01 00:00:00
FILE "12. Celia Cruz Con Tito Puente - Quimbo Quimbumbia.wav" WAVE
TRACK 12 AUDIO
TITLE "Quimbo Quimbumbia"
PERFORMER "Celia Cruz Con Tito Puente"
INDEX 01 00:00:00
00:23
253
Нет комментариев. Ваш будет первым!