Поиск

(Latino, Afro-Cuban) VA - Travel Series: Cuban All Stars - 2007, FLAC (image+.cue), lossless

Треклист:
Travel Series: Cuban All Stars
Жанр: Latino, Afro-Cuban
Страна-производитель диска: Российская Федерация
Год издания диска: 2007
Издатель (лейбл): Warm-Up SA / Landy Stars Music
Номер по каталогу: LSM-387015
Страна: The Republic of Cuba
Аудиокодек: FLAC (*.flac)
Тип рипа: image+.cue
Битрейт аудио: lossless
Продолжительность: 69:09
Источник (релизер): Собственный рип
Наличие сканов в содержимом раздачи: да
Треклист:
1. A Buena Vista - Luis Frank Arias
2. Vengo Con Sed - Gran Afro-Cuban Orquesta de Generoso Jimenez
3. Chan Chan - Compay Segundo
4. Que Cosa Tiene la Vida - Cesar Pedroso
5. Ay Lola - Sergio Rivero
6. Bongo se Fue Pa'l Congo - Tiburon Morales
7. Baila Suave - Soneros de Verdad
8. Cuando ya no me Quieras - Pio Leiva
9. Que Rico Son - Los Herederos
10. Kikiriki - Rudy Calzado
11. Yo Vengo Aqui - Compay Segundo
12. Parece Mentira - Cesar Pedroso
13. Macoris - Potato Valdes
14. La Reina del Cafe - Rudy Calzado
15. Maria Caracoles - Estrellas de San Antonio
16. Moonlight Serenade - Juan Pablo Torres
 
Лог создания рипа
Exact Audio Copy V0.99 prebeta 5 from 4. May 2009
Отчёт EAC об извлечении, выполненном 5. июня 2011, 10:45
Various Artists / Cuban All Stars
Дисковод: _NEC DVD_RW ND-3540A Adapter: 3 ID: 0
Режим чтения : Достоверность
Использование точного потока : Да
Отключение кэша аудио : Да
Использование указателей C2 : Нет
Коррекция смещения при чтении : 48
Способность читать области Lead-in и Lead-out : Нет
Заполнение пропущенных сэмплов тишиной : Да
Удаление блоков с тишиной в начале и конце : Нет
При вычислениях CRC использовались нулевые сэмплы : Да
Интерфейс : Встроенный Win32-интерфейс для Win NT/2000
Выходной формат : Пользовательский кодировщик
Выбранный битрейт : 768 kBit/s
Качество : Высокий
Добавление ID3-тэга : Нет
Утилита сжатия : C:\Program Files\Exact Audio Copy\FLAC\FLAC.EXE
Дополнительные параметры : -8 -V -T "ARTIST=%a" -T "TITLE=%t" -T "ALBUM=%g" -T "DATE=%y" -T "TRACKNUMBER=%n" -T "GENRE=%m" -T "COMMENT=EAC FLAC -8" %s
TOC извлечённого CD
Трек | Старт | Длительность | Начальный сектор | Конечный сектор
---------------------------------------------------------------------
1 | 0:00.00 | 3:13.02 | 0 | 14476
2 | 3:13.02 | 3:14.40 | 14477 | 29066
3 | 6:27.42 | 4:21.35 | 29067 | 48676
4 | 10:49.02 | 4:29.58 | 48677 | 68909
5 | 15:18.60 | 4:05.00 | 68910 | 87284
6 | 19:23.60 | 6:46.40 | 87285 | 117774
7 | 26:10.25 | 3:26.40 | 117775 | 133264
8 | 29:36.65 | 4:20.35 | 133265 | 152799
9 | 33:57.25 | 3:54.42 | 152800 | 170391
10 | 37:51.67 | 3:40.28 | 170392 | 186919
11 | 41:32.20 | 4:17.17 | 186920 | 206211
12 | 45:49.37 | 5:24.18 | 206212 | 230529
13 | 51:13.55 | 4:03.10 | 230530 | 248764
14 | 55:16.65 | 3:31.32 | 248765 | 264621
15 | 58:48.22 | 2:44.68 | 264622 | 276989
16 | 61:33.15 | 7:34.17 | 276990 | 311056
Характеристики диапазона извлечения и сообщения об ошибках
Выбранный диапазон
Имя файла C:\Documents and Settings\1\Мои документы\Various Artists - Cuban All Stars\Various Artists - Cuban All Stars.wav
Пиковый уровень 100.0 %
Качество диапазона 99.9 %
CRC теста A7897337
CRC копии A7897337
Копирование... OK
Ошибок не произошло
AccurateRip: сводка
Трек 1 нет в базе данных
Трек 2 нет в базе данных
Трек 3 нет в базе данных
Трек 4 нет в базе данных
Трек 5 нет в базе данных
Трек 6 нет в базе данных
Трек 7 нет в базе данных
Трек 8 нет в базе данных
Трек 9 нет в базе данных
Трек 10 нет в базе данных
Трек 11 нет в базе данных
Трек 12 нет в базе данных
Трек 13 нет в базе данных
Трек 14 нет в базе данных
Трек 15 нет в базе данных
Трек 16 нет в базе данных
Ни одного трека нет в базе AccurateRip
Конец отчёта
Доп. информация: Это CD из "Travel Series: Cuba. Cuban All Stars. (DVD+CD)". На DVD: видеопрогулка по острову в звуковом сопровождении - 17 треков, 43 минуты, на сканах есть треклист. Звук там 5.1, 448 kbps - вобщем на любителя, если надо могу выложить.
 
Об альбоме (сборнике)
Уникальное по качеству исполнителей издание, раскрывающее всю историю музыки Кубы последних лет. В альбоме собраны самые лучшие авторы, которые уже много лет популярны у себя на родине, и далеко за её пределами (Compay Segundo, Cesar Pedroso, Sergio Rivero, Pio Leiva, Soneros de Verdad, и многие другие). Живая, искренняя, чувственная, и солнечная музыка, позволяющая с головой окунуться в атмосферу кубинского праздника жизни.
22:03
269
Нет комментариев. Ваш будет первым!