Поиск

(Latin/Mambo) Perez Prado - King Of Mambo - 1992, FLAC (tracks+.cue) lossless

Треклист:
Perez Prado / King Of Mambo
Жанр: Latin/Mambo
Страна-производитель диска: EEC
Год издания диска: 1992
Издатель (лейбл): Sarabandas
Номер по каталогу: CD-307
Страна: Куба
Аудио кодек: FLAC (*.flac)
Тип рипа: tracks+.cue
Битрейт аудио: lossless
Продолжительность: 58'57''
Источник (релизер): TQMP
Наличие сканов в содержимом раздачи: да
Треклист:
01. Ciliegi Rosa (Cherry Pink And Apple Blossom White)
02. Mambo Jambo (Que Rico El Mambo)
03. Patricia
04. Mambo N. 5
05. Maria Bonita
06. Mambo N. 8
07. Cu-cu-rru-cu-cu-paloma
08. Isle Of Capri
09. In A Little Spanish Town
10. Adios Pampa Mia
11. Moliendo Cafe
12. Always In My Heart
13. La Raspa
14. Taboo
15. Perfidia
16. Quizas, Quizas, Quizas (Perhaps, Perhaps, Perhaps)
17. Frenesi
18. You Belong To My Heart
19. Alma Llanera
20. Aquello Ojos Verdes (Green Eyes)
21. Rockambo Baby
22. Ay Ay Ay
23. Tico Tico
24. Mama Yo Quiero
25. Adios
 
Лог создания рипа
Exact Audio Copy V0.99 prebeta 5 from 4. May 2009
EAC extraction logfile from 17. June 2010, 16:00
Pérez Prado / King Of Mambo
Used drive : HL-DT-STDVD-RAM GH22NP20 Adapter: 1 ID: 1
Read mode : Secure
Utilize accurate stream : Yes
Defeat audio cache : Yes
Make use of C2 pointers : No
Read offset correction : 102
Overread into Lead-In and Lead-Out : No
Fill up missing offset samples with silence : Yes
Delete leading and trailing silent blocks : No
Null samples used in CRC calculations : Yes
Used interface : Installed external ASPI interface
Gap handling : Appended to previous track
Used output format : User Defined Encoder
Selected bitrate : 1024 kBit/s
Quality : High
Add ID3 tag : No
Command line compressor : C:\Program Files\Exact Audio Copy\FLAC\FLAC.EXE
Additional command line options : -5 -V -T "ARTIST=%a" -T "TITLE=%t" -T "ALBUM=%g" -T "DATE=%y" -T "TRACKNUMBER=%n" -T "GENRE=%m" -T "COMMENT=%e" %s -o %d
Use compression offset : 48
TOC of the extracted CD
Track | Start | Length | Start sector | End sector
---------------------------------------------------------
1 | 0:00.00 | 2:26.55 | 0 | 11004
2 | 2:26.55 | 2:20.73 | 11005 | 21577
3 | 4:47.53 | 2:21.10 | 21578 | 32162
4 | 7:08.63 | 2:08.70 | 32163 | 41832
5 | 9:17.58 | 2:47.30 | 41833 | 54387
6 | 12:05.13 | 2:05.10 | 54388 | 63772
7 | 14:10.23 | 2:52.42 | 63773 | 76714
8 | 17:02.65 | 1:48.55 | 76715 | 84869
9 | 18:51.45 | 2:33.25 | 84870 | 96369
10 | 21:24.70 | 2:06.65 | 96370 | 105884
11 | 23:31.60 | 1:51.10 | 105885 | 114219
12 | 25:22.70 | 2:44.43 | 114220 | 126562
13 | 28:07.38 | 2:34.52 | 126563 | 138164
14 | 30:42.15 | 2:19.28 | 138165 | 148617
15 | 33:01.43 | 2:33.27 | 148618 | 160119
16 | 35:34.70 | 2:18.40 | 160120 | 170509
17 | 37:53.35 | 2:01.38 | 170510 | 179622
18 | 39:54.73 | 2:43.02 | 179623 | 191849
19 | 42:38.00 | 2:24.18 | 191850 | 202667
20 | 45:02.18 | 3:02.50 | 202668 | 216367
21 | 48:04.68 | 1:41.45 | 216368 | 223987
22 | 49:46.38 | 2:15.42 | 223988 | 234154
23 | 52:02.05 | 1:49.43 | 234155 | 242372
24 | 53:51.48 | 2:05.55 | 242373 | 251802
25 | 55:57.28 | 3:13.15 | 251803 | 266292
Track 1
Filename C:\New Folder\01. Ciliegi Rosa (Cherry Pink And Apple Blossom White).wav
Pre-gap length 0:00:02.00
Peak level 73.3 %
Track quality 100.0 %
Copy CRC 3061BB73
Track not present in AccurateRip database
Copy OK
Track 2
Filename C:\New Folder\02. Mambo Jambo (Que Rico El Mambo).wav
Pre-gap length 0:00:00.22
Peak level 83.2 %
Track quality 100.0 %
Copy CRC A52B9627
Track not present in AccurateRip database
Copy OK
Track 3
Filename C:\New Folder\03. Patricia.wav
Pre-gap length 0:00:00.15
Peak level 74.0 %
Track quality 99.9 %
Copy CRC 345FF189
Track not present in AccurateRip database
Copy OK
Track 4
Filename C:\New Folder\04. Mambo N. 5.wav
Pre-gap length 0:00:00.28
Peak level 81.3 %
Track quality 100.0 %
Copy CRC 693D5948
Track not present in AccurateRip database
Copy OK
Track 5
Filename C:\New Folder\05. Maria Bonita.wav
Pre-gap length 0:00:00.38
Peak level 99.8 %
Track quality 100.0 %
Copy CRC AA31B935
Track not present in AccurateRip database
Copy OK
Track 6
Filename C:\New Folder\06. Mambo N. 8.wav
Pre-gap length 0:00:00.43
Peak level 82.7 %
Track quality 100.0 %
Copy CRC 379F16ED
Track not present in AccurateRip database
Copy OK
Track 7
Filename C:\New Folder\07. Cu-cu-rru-cu-cu-paloma.wav
Pre-gap length 0:00:00.40
Peak level 87.7 %
Track quality 100.0 %
Copy CRC 864B25C8
Track not present in AccurateRip database
Copy OK
Track 8
Filename C:\New Folder\08. Isle Of Capri.wav
Pre-gap length 0:00:00.40
Peak level 81.6 %
Track quality 100.0 %
Copy CRC CC7740C7
Track not present in AccurateRip database
Copy OK
Track 9
Filename C:\New Folder\09. In A Little Spanish Town.wav
Pre-gap length 0:00:00.40
Peak level 78.3 %
Track quality 100.0 %
Copy CRC 537A2461
Track not present in AccurateRip database
Copy OK
Track 10
Filename C:\New Folder\10. Adios Pampa Mia.wav
Pre-gap length 0:00:00.32
Peak level 69.1 %
Track quality 100.0 %
Copy CRC 0421FA7F
Track not present in AccurateRip database
Copy OK
Track 11
Filename C:\New Folder\11. Moliendo Cafe.wav
Pre-gap length 0:00:00.42
Peak level 65.7 %
Track quality 100.0 %
Copy CRC 40C723FB
Track not present in AccurateRip database
Copy OK
Track 12
Filename C:\New Folder\12. Always In My Heart.wav
Pre-gap length 0:00:00.30
Peak level 72.2 %
Track quality 100.0 %
Copy CRC 931C2BCC
Track not present in AccurateRip database
Copy OK
Track 13
Filename C:\New Folder\13. La Raspa.wav
Pre-gap length 0:00:00.43
Peak level 76.0 %
Track quality 100.0 %
Copy CRC 97832F6F
Track not present in AccurateRip database
Copy OK
Track 14
Filename C:\New Folder\14. Taboo.wav
Pre-gap length 0:00:00.30
Peak level 79.6 %
Track quality 100.0 %
Copy CRC 030044F5
Track not present in AccurateRip database
Copy OK
Track 15
Filename C:\New Folder\15. Perfidia.wav
Pre-gap length 0:00:00.38
Peak level 79.3 %
Track quality 100.0 %
Copy CRC 1153B9D7
Track not present in AccurateRip database
Copy OK
Track 16
Filename C:\New Folder\16. Quizas, Quizas, Quizas (Perhaps, Perhaps, Perhaps).wav
Pre-gap length 0:00:00.42
Peak level 70.7 %
Track quality 100.0 %
Copy CRC A9A9EFF3
Track not present in AccurateRip database
Copy OK
Track 17
Filename C:\New Folder\17. Frenesi.wav
Pre-gap length 0:00:00.37
Peak level 80.5 %
Track quality 99.9 %
Copy CRC 2649C1BE
Track not present in AccurateRip database
Copy OK
Track 18
Filename C:\New Folder\18. You Belong To My Heart.wav
Pre-gap length 0:00:00.30
Peak level 71.9 %
Track quality 99.9 %
Copy CRC D1CC5633
Track not present in AccurateRip database
Copy OK
Track 19
Filename C:\New Folder\19. Alma Llanera.wav
Pre-gap length 0:00:00.40
Peak level 65.8 %
Track quality 100.0 %
Copy CRC CC365D90
Track not present in AccurateRip database
Copy OK
Track 20
Filename C:\New Folder\20. Aquello Ojos Verdes (Green Eyes).wav
Pre-gap length 0:00:00.20
Peak level 65.5 %
Track quality 100.0 %
Copy CRC B7F96794
Track not present in AccurateRip database
Copy OK
Track 21
Filename C:\New Folder\21. Rockambo Baby.wav
Pre-gap length 0:00:00.43
Peak level 74.3 %
Track quality 99.8 %
Copy CRC 10F86313
Track not present in AccurateRip database
Copy OK
Track 22
Filename C:\New Folder\22. Ay Ay Ay.wav
Pre-gap length 0:00:00.35
Peak level 75.1 %
Track quality 100.0 %
Copy CRC 9A143102
Track not present in AccurateRip database
Copy OK
Track 23
Filename C:\New Folder\23. Tico Tico.wav
Pre-gap length 0:00:00.15
Peak level 76.5 %
Track quality 99.9 %
Copy CRC 47B66EDF
Track not present in AccurateRip database
Copy OK
Track 24
Filename C:\New Folder\24. Mama Yo Quiero.wav
Pre-gap length 0:00:00.23
Peak level 69.0 %
Track quality 100.0 %
Copy CRC 359A535C
Track not present in AccurateRip database
Copy OK
Track 25
Filename C:\New Folder\25. Adios.wav
Pre-gap length 0:00:00.30
Peak level 81.7 %
Track quality 100.0 %
Copy CRC 9D04620D
Track not present in AccurateRip database
Copy OK
None of the tracks are present in the AccurateRip database
No errors occurred
End of status report
 
Об исполнителе (группе)
Universally known as the King of the Mambo, Pérez Prado was the single most important musician involved in the hugely popular Latin dance craze.
Whether he actually created the rhythm is somewhat disputed, but it's abundantly clear that Prado developed it into a bright, swinging style with massive appeal for dancers of all backgrounds and classes.
Prado's mambo was filled with piercing high-register trumpets, undulating saxophone counterpoint, atmospheric organ (later on), and harmonic ideas borrowed from jazz. While his tight percussion arrangements allowed for little improvisation, they were dense and sharply focused, keeping the underlying syncopations easy for dancers to follow.
Prado played the piano, but was often more in his element as the focal point of the audience's excitement; he leaped, kicked, danced, shouted, grunted, and exhorted his musicians with a dynamic stage presence that put many more sedate conductors and bandleaders to shame.
With this blueprint, Prado brought mambo all the way into the pop mainstream, inspiring countless imitators and scoring two number one singles on the pop charts (albeit in a smoother vein than the fare that first made his name) as the fad snowballed.
He was a star throughout most of the Western Hemisphere during the '50s, and even after his popularity waned in the United States, he remained a widely respected figure in many Latin countries, especially his adopted home of Mexico. Prado is often best remembered for his softer, more commercial work, which has an undeniable kitschiness that plays well with modern-day lounge-revival hipsters.
Unfortunately, that has served to obscure his very real credentials in the realm of authentic, unadulterated Latin dance music, and to this day he remains somewhat underappreciated.
 
.cue
REM GENRE Latin
REM DATE 1992
REM DISCID 750DDE19
REM COMMENT "ExactAudioCopy v0.99pb5"
PERFORMER "Pérez Prado"
TITLE "King Of Mambo"
FILE "01. Ciliegi Rosa (Cherry Pink And Apple Blossom White).wav" WAVE
TRACK 01 AUDIO
TITLE "Ciliegi Rosa (Cherry Pink And Apple Blossom White)"
PERFORMER "Pérez Prado"
INDEX 01 00:00:00
TRACK 02 AUDIO
TITLE "Mambo Jambo (Que Rico El Mambo)"
PERFORMER "Pérez Prado"
INDEX 00 02:26:33
FILE "02. Mambo Jambo (Que Rico El Mambo).wav" WAVE
INDEX 01 00:00:00
TRACK 03 AUDIO
TITLE "Patricia"
PERFORMER "Pérez Prado"
INDEX 00 02:20:58
FILE "03. Patricia.wav" WAVE
INDEX 01 00:00:00
TRACK 04 AUDIO
TITLE "Mambo N. 5"
PERFORMER "Pérez Prado"
INDEX 00 02:20:57
FILE "04. Mambo N. 5.wav" WAVE
INDEX 01 00:00:00
TRACK 05 AUDIO
TITLE "Maria Bonita"
PERFORMER "Pérez Prado"
INDEX 00 02:08:32
FILE "05. Maria Bonita.wav" WAVE
INDEX 01 00:00:00
TRACK 06 AUDIO
TITLE "Mambo N. 8"
PERFORMER "Pérez Prado"
INDEX 00 02:46:62
FILE "06. Mambo N. 8.wav" WAVE
INDEX 01 00:00:00
TRACK 07 AUDIO
TITLE "Cu-cu-rru-cu-cu-paloma"
PERFORMER "Pérez Prado"
INDEX 00 02:04:45
FILE "07. Cu-cu-rru-cu-cu-paloma.wav" WAVE
INDEX 01 00:00:00
TRACK 08 AUDIO
TITLE "Isle Of Capri"
PERFORMER "Pérez Prado"
INDEX 00 02:52:02
FILE "08. Isle Of Capri.wav" WAVE
INDEX 01 00:00:00
TRACK 09 AUDIO
TITLE "In A Little Spanish Town"
PERFORMER "Pérez Prado"
INDEX 00 01:48:15
FILE "09. In A Little Spanish Town.wav" WAVE
INDEX 01 00:00:00
TRACK 10 AUDIO
TITLE "Adios Pampa Mia"
PERFORMER "Pérez Prado"
INDEX 00 02:32:68
FILE "10. Adios Pampa Mia.wav" WAVE
INDEX 01 00:00:00
TRACK 11 AUDIO
TITLE "Moliendo Cafe"
PERFORMER "Pérez Prado"
INDEX 00 02:06:23
FILE "11. Moliendo Cafe.wav" WAVE
INDEX 01 00:00:00
TRACK 12 AUDIO
TITLE "Always In My Heart"
PERFORMER "Pérez Prado"
INDEX 00 01:50:55
FILE "12. Always In My Heart.wav" WAVE
INDEX 01 00:00:00
TRACK 13 AUDIO
TITLE "La Raspa"
PERFORMER "Pérez Prado"
INDEX 00 02:44:00
FILE "13. La Raspa.wav" WAVE
INDEX 01 00:00:00
TRACK 14 AUDIO
TITLE "Taboo"
PERFORMER "Pérez Prado"
INDEX 00 02:34:22
FILE "14. Taboo.wav" WAVE
INDEX 01 00:00:00
TRACK 15 AUDIO
TITLE "Perfidia"
PERFORMER "Pérez Prado"
INDEX 00 02:18:65
FILE "15. Perfidia.wav" WAVE
INDEX 01 00:00:00
TRACK 16 AUDIO
TITLE "Quizas, Quizas, Quizas (Perhaps, Perhaps, Perhaps)"
PERFORMER "Pérez Prado"
INDEX 00 02:32:60
FILE "16. Quizas, Quizas, Quizas (Perhaps, Perhaps, Perhaps).wav" WAVE
INDEX 01 00:00:00
TRACK 17 AUDIO
TITLE "Frenesi"
PERFORMER "Pérez Prado"
INDEX 00 02:18:03
FILE "17. Frenesi.wav" WAVE
INDEX 01 00:00:00
TRACK 18 AUDIO
TITLE "You Belong To My Heart"
PERFORMER "Pérez Prado"
INDEX 00 02:01:08
FILE "18. You Belong To My Heart.wav" WAVE
INDEX 01 00:00:00
TRACK 19 AUDIO
TITLE "Alma Llanera"
PERFORMER "Pérez Prado"
INDEX 00 02:42:37
FILE "19. Alma Llanera.wav" WAVE
INDEX 01 00:00:00
TRACK 20 AUDIO
TITLE "Aquello Ojos Verdes (Green Eyes)"
PERFORMER "Pérez Prado"
INDEX 00 02:23:73
FILE "20. Aquello Ojos Verdes (Green Eyes).wav" WAVE
INDEX 01 00:00:00
TRACK 21 AUDIO
TITLE "Rockambo Baby"
PERFORMER "Pérez Prado"
INDEX 00 03:02:07
FILE "21. Rockambo Baby.wav" WAVE
INDEX 01 00:00:00
TRACK 22 AUDIO
TITLE "Ay Ay Ay"
PERFORMER "Pérez Prado"
INDEX 00 01:41:10
FILE "22. Ay Ay Ay.wav" WAVE
INDEX 01 00:00:00
TRACK 23 AUDIO
TITLE "Tico Tico"
PERFORMER "Pérez Prado"
INDEX 00 02:15:27
FILE "23. Tico Tico.wav" WAVE
INDEX 01 00:00:00
TRACK 24 AUDIO
TITLE "Mama Yo Quiero"
PERFORMER "Pérez Prado"
INDEX 00 01:49:20
FILE "24. Mama Yo Quiero.wav" WAVE
INDEX 01 00:00:00
TRACK 25 AUDIO
TITLE "Adios"
PERFORMER "Pérez Prado"
INDEX 00 02:05:25
FILE "25. Adios.wav" WAVE
INDEX 01 00:00:00
17:45
388
Нет комментариев. Ваш будет первым!