Поиск

(Latin Jazz/World Fusion) Wladigeroff Brothers - For The Greatest And Little Things - 2011, FLAC (tracks+.cue), lossless

(Latin Jazz/World Fusion) Wladigeroff Brothers - For The Greatest And Little Things - 2011, FLAC (tracks+.cue), lossless
Треклист:
Wladigeroff Brothers / For The Greatest And Little Things
Жанр: Latin Jazz/World Fusion
Страна-производитель диска: Austria
Год издания диска: 2011
Издатель (лейбл): Holophon Rec.
Номер по каталогу: HO38
Страна: Bulgaria
Аудиокодек: FLAC (*.flac)
Тип рипа: tracks+.cue
Битрейт аудио: lossless
Продолжительность: 1:14:50
Источник (релизер): какой.компакт-диск
Наличие сканов в содержимом раздачи: нет
Треклист:
01. E.S.T. - Part 1
02. E.S.T. - Part 2
03. For The Greatest And Little Things
04. Smolyansko Vaklo Devoiche
05. Varenka
06. Salsalito
07. Emi
08. Dance Elegy
09. Rachenitza
10. For The Day, When Today Will Be Some Time Ago
11. Voller Kanton
12. Children's Smiles
 
Лог создания рипа
Exact Audio Copy V1.0 beta 3 from 29. August 2011
EAC extraction logfile from 19. November 2011, 19:43
Wladigeroff Brothers / For The Greatest And Little Things
Used drive : HL-DT-STDVDRAM GSA-H10N Adapter: 1 ID: 0
Read mode : Secure
Utilize accurate stream : Yes
Defeat audio cache : Yes
Make use of C2 pointers : No
Read offset correction : 667
Overread into Lead-In and Lead-Out : No
Fill up missing offset samples with silence : Yes
Delete leading and trailing silent blocks : No
Null samples used in CRC calculations : Yes
Used interface : Native Win32 interface for Win NT & 2000
Gap handling : Appended to previous track
Used output format : User Defined Encoder
Selected bitrate : 32 kBit/s
Quality : High
Add ID3 tag : No
Command line compressor : C:\Program Files\Exact Audio Copy\Flac\flac.exe
Additional command line options : -8 -V -T "ARTIST=%artist%" -T "TITLE=%title%" -T "ALBUM=%albumtitle%" -T "DATE=%year%" -T "TRACKNUMBER=%tracknr%" -T "GENRE=%genre%" -T "PERFORMER=%albuminterpret%" -T "COMPOSER=%composer%" %haslyrics%--tag-from-file=LYRICS="%lyricsfile%"%haslyrics% -T "ALBUMARTIST=%albumartist%" -T "DISCNUMBER=%cdnumber%" -T "TOTALDISCS=%totalcds%" -T "TOTALTRACKS=%numtracks%" -T "COMMENT=%comment%" %source% -o %dest%
TOC of the extracted CD
Track | Start | Length | Start sector | End sector
---------------------------------------------------------
1 | 0:00.00 | 4:04.14 | 0 | 18313
2 | 4:04.14 | 7:03.63 | 18314 | 50101
3 | 11:08.02 | 4:42.06 | 50102 | 71257
4 | 15:50.08 | 5:52.20 | 71258 | 97677
5 | 21:42.28 | 9:17.34 | 97678 | 139486
6 | 30:59.62 | 7:00.18 | 139487 | 171004
7 | 38:00.05 | 6:02.31 | 171005 | 198185
8 | 44:02.36 | 8:39.50 | 198186 | 237160
9 | 52:42.11 | 7:14.31 | 237161 | 269741
10 | 59:56.42 | 3:39.57 | 269742 | 286223
11 | 63:36.24 | 4:24.49 | 286224 | 306072
12 | 68:00.73 | 6:49.03 | 306073 | 336750
Track 1
Filename D:\exclude\Wladigeroff Brothers - For The Greatest And Little Things FLAC\01 E.S.T. - Part 1.wav
Pre-gap length 0:00:02.00
Peak level 98.4 %
Extraction speed 1.1 X
Track quality 100.0 %
Test CRC 53FDE340
Copy CRC 53FDE340
Track not present in AccurateRip database
Copy OK
Track 2
Filename D:\exclude\Wladigeroff Brothers - For The Greatest And Little Things FLAC\02 E.S.T. - Part 2.wav
Peak level 98.4 %
Extraction speed 1.3 X
Track quality 100.0 %
Test CRC C9E946E1
Copy CRC C9E946E1
Track not present in AccurateRip database
Copy OK
Track 3
Filename D:\exclude\Wladigeroff Brothers - For The Greatest And Little Things FLAC\03 For The Greatest And Little Things.wav
Pre-gap length 0:00:01.98
Peak level 98.7 %
Extraction speed 1.4 X
Track quality 100.0 %
Test CRC D4A18DD8
Copy CRC D4A18DD8
Track not present in AccurateRip database
Copy OK
Track 4
Filename D:\exclude\Wladigeroff Brothers - For The Greatest And Little Things FLAC\04 Smolyansko Vaklo Devoiche.wav
Pre-gap length 0:00:01.98
Peak level 98.5 %
Extraction speed 1.5 X
Track quality 99.9 %
Test CRC 5F18FEF8
Copy CRC 5F18FEF8
Track not present in AccurateRip database
Copy OK
Track 5
Filename D:\exclude\Wladigeroff Brothers - For The Greatest And Little Things FLAC\05 Varenka.wav
Pre-gap length 0:00:01.98
Peak level 98.8 %
Extraction speed 1.7 X
Track quality 99.9 %
Test CRC 2591E7D1
Copy CRC 2591E7D1
Track not present in AccurateRip database
Copy OK
Track 6
Filename D:\exclude\Wladigeroff Brothers - For The Greatest And Little Things FLAC\06 Salsalito.wav
Pre-gap length 0:00:01.98
Peak level 98.4 %
Extraction speed 2.0 X
Track quality 100.0 %
Test CRC 10EC10F1
Copy CRC 10EC10F1
Track not present in AccurateRip database
Copy OK
Track 7
Filename D:\exclude\Wladigeroff Brothers - For The Greatest And Little Things FLAC\07 Emi.wav
Pre-gap length 0:00:03.09
Peak level 98.5 %
Extraction speed 2.0 X
Track quality 100.0 %
Test CRC 4446FA39
Copy CRC 4446FA39
Track not present in AccurateRip database
Copy OK
Track 8
Filename D:\exclude\Wladigeroff Brothers - For The Greatest And Little Things FLAC\08 Dance Elegy.wav
Pre-gap length 0:00:01.98
Peak level 98.6 %
Extraction speed 2.3 X
Track quality 100.0 %
Test CRC 790314C1
Copy CRC 790314C1
Track not present in AccurateRip database
Copy OK
Track 9
Filename D:\exclude\Wladigeroff Brothers - For The Greatest And Little Things FLAC\09 Rachenitza.wav
Pre-gap length 0:00:01.98
Peak level 98.5 %
Extraction speed 2.4 X
Track quality 100.0 %
Test CRC 3DA7B452
Copy CRC 3DA7B452
Track not present in AccurateRip database
Copy OK
Track 10
Filename D:\exclude\Wladigeroff Brothers - For The Greatest And Little Things FLAC\10 For The Day, When Today Will Be Some Time Ago.wav
Pre-gap length 0:00:02.82
Peak level 98.8 %
Extraction speed 1.9 X
Track quality 99.9 %
Test CRC 6AE305DC
Copy CRC 6AE305DC
Track not present in AccurateRip database
Copy OK
Track 11
Filename D:\exclude\Wladigeroff Brothers - For The Greatest And Little Things FLAC\11 Voller Kanton.wav
Pre-gap length 0:00:01.98
Peak level 98.5 %
Extraction speed 2.4 X
Track quality 100.0 %
Test CRC 627B6E57
Copy CRC 627B6E57
Track not present in AccurateRip database
Copy OK
Track 12
Filename D:\exclude\Wladigeroff Brothers - For The Greatest And Little Things FLAC\12 Children's Smiles.wav
Pre-gap length 0:00:02.56
Peak level 98.3 %
Extraction speed 2.4 X
Track quality 99.9 %
Test CRC 9097EF9F
Copy CRC 9097EF9F
Track not present in AccurateRip database
Copy OK
None of the tracks are present in the AccurateRip database
No errors occurred
End of status report
==== Log checksum 9FC7297F354743179E3E6BB74DDC84A324E5768ECF1EB0F5BCBE9E0595741533 ====
 
Содержание индексной карты (.CUE)
REM DATE 2011
REM DISCID AA118A0C
REM COMMENT "ExactAudioCopy v1.0b3"
CATALOG 4017866000644
PERFORMER "Wladigeroff Brothers"
TITLE "For The Greatest And Little Things"
FILE "E.S.T. - Part 1.flac" WAVE
TRACK 01 AUDIO
TITLE "E.S.T. - Part 1"
PERFORMER "Wladigeroff Brothers"
ISRC DEY591100401
INDEX 01 00:00:00
FILE "E.S.T. - Part 2.flac" WAVE
TRACK 02 AUDIO
TITLE "E.S.T. - Part 2"
PERFORMER "Wladigeroff Brothers"
ISRC DEY591100402
INDEX 01 00:00:00
TRACK 03 AUDIO
TITLE "For The Greatest And Little Things"
PERFORMER "Wladigeroff Brothers"
ISRC DEY591100403
INDEX 00 07:01:64
FILE "For The Greatest And Little Things.flac" WAVE
INDEX 01 00:00:00
TRACK 04 AUDIO
TITLE "Smolyansko Vaklo Devoiche"
PERFORMER "Wladigeroff Brothers"
ISRC DEY591100404
INDEX 00 04:40:07
FILE "Smolyansko Vaklo Devoiche.flac" WAVE
INDEX 01 00:00:00
TRACK 05 AUDIO
TITLE "Varenka"
PERFORMER "Wladigeroff Brothers"
ISRC DEY591100405
INDEX 00 05:50:21
FILE "Varenka.flac" WAVE
INDEX 01 00:00:00
TRACK 06 AUDIO
TITLE "Salsalito"
PERFORMER "Wladigeroff Brothers"
ISRC DEY591100406
INDEX 00 09:15:35
FILE "Salsalito.flac" WAVE
INDEX 01 00:00:00
TRACK 07 AUDIO
TITLE "Emi"
PERFORMER "Wladigeroff Brothers"
ISRC DEY591100407
INDEX 00 06:57:11
FILE "Emi.flac" WAVE
INDEX 01 00:00:00
TRACK 08 AUDIO
TITLE "Dance Elegy"
PERFORMER "Wladigeroff Brothers"
ISRC DEY591100408
INDEX 00 06:00:32
FILE "Dance Elegy.flac" WAVE
INDEX 01 00:00:00
TRACK 09 AUDIO
TITLE "Rachenitza"
PERFORMER "Wladigeroff Brothers"
ISRC DEY591100409
INDEX 00 08:37:51
FILE "Rachenitza.flac" WAVE
INDEX 01 00:00:00
TRACK 10 AUDIO
TITLE "For The Day, When Today Will Be Some Time Ago"
PERFORMER "Wladigeroff Brothers"
ISRC DEY591100410
INDEX 00 07:11:44
FILE "For The Day, When Today Will Be Some Time Ago.flac" WAVE
INDEX 01 00:00:00
TRACK 11 AUDIO
TITLE "Voller Kanton"
PERFORMER "Wladigeroff Brothers"
ISRC DEY591100411
INDEX 00 03:37:58
FILE "Voller Kanton.flac" WAVE
INDEX 01 00:00:00
TRACK 12 AUDIO
TITLE "Children's Smiles"
PERFORMER "Wladigeroff Brothers"
ISRC DEY591100412
INDEX 00 04:22:07
FILE "Children's Smiles.flac" WAVE
INDEX 01 00:00:00
 
Дополнительная информация
"For The Greatest And Little Things" is the latest album by the award-winning Bulgarian twin brothers, Konstantin and Alexander Wladigeroff. Alexander, trumpet player with extraordinary skills,
and Konstantin, an evocative pianist and clarinetist, have teamed up with a diverse and exciting band of international artists, amongst them percussionist Stoyan Yankoulov. ”For The Greatest And Little Things“
fluidly combines intricate jazz harmonies with hot Latin rhythms and Eastern and Balkan melodies.
The richly textured album creates an artistic arch from ballads in shades of blue to entertaining, foot- tapping uptempo numbers, all with a dose of whimsical humour. If rhythm is the bridge between cultures, the twins walk across
it with a spring in their step!
01:01
252
Нет комментариев. Ваш будет первым!