Поиск

(Latin Jazz/World Fusion) Compay Segundo - Yo Vengo Aqui - 1996, FLAC (tracks+.cue), lossless

(Latin Jazz/World Fusion) Compay Segundo - Yo Vengo Aqui - 1996, FLAC (tracks+.cue), lossless
Треклист:
Compay Segundo / Yo Vengo Aqui
Жанр: Latin Jazz/World Fusion
Страна-производитель диска: Argentina
Год издания: 1996
Издатель (лейбл): DRO East West
Страна: Cuba
Аудиокодек: FLAC (*.flac)
Тип рипа: tracks+.cue
Битрейт аудио: lossless
Продолжительность: 00:53:18
Источник (релизер): internet
Наличие сканов в содержимом раздачи: да
Треклист:
01 Yo Vengo Aqui
02 Sabroso
03 Chicharrones
04 Macusa
05 Ahora Me da Pena
06 Mi Calderito
Silencio 07
08 Hey Caramba
09 Quien Te Bautizo (Vicenta)
10 Se Seco el Arroyito
11 Orgullecida
12 Clarabella
13 Sarandonga
14 Virgen del Pino
15 Chan Chan
 
Лог создания рипа
Exact Audio Copy V1.0 beta 1 from 15. November 2010
EAC extraction logfile from 19. March 2011, 18:08
Compay Segundo / Yo Vengo Aquí
Used drive : HL-DT-STDVDRAM GSA-T50F Adapter: 3 ID: 0
Read mode : Secure
Utilize accurate stream : Yes
Defeat audio cache : Yes
Make use of C2 pointers : No
Read offset correction : 667
Overread into Lead-In and Lead-Out : No
Fill up missing offset samples with silence : Yes
Delete leading and trailing silent blocks : No
Null samples used in CRC calculations : Yes
Used interface : Native Win32 interface for Win NT & 2000
Gap handling : Appended to previous track
Used output format : User Defined Encoder
Selected bitrate : 128 kBit/s
Quality : High
Add ID3 tag : No
Command line compressor : C:\Program Files\Exact Audio Copy 1 beta\Exact Audio Copy\flac.exe
Additional command line options : -4 -T "artist=%a" -T "title=%t" -T "album=%g" -T "date=%y" -T "tracknumber=%n" -T "genre=%m" %s
TOC of the extracted CD
Track | Start | Length | Start sector | End sector
---------------------------------------------------------
1 | 0:00.00 | 4:18.12 | 0 | 19361
2 | 4:18.12 | 4:19.08 | 19362 | 38794
3 | 8:37.20 | 4:29.72 | 38795 | 59041
4 | 13:07.17 | 4:21.64 | 59042 | 78680
5 | 17:29.06 | 4:14.26 | 78681 | 97756
6 | 21:43.32 | 3:21.24 | 97757 | 112855
7 | 25:04.56 | 2:47.30 | 112856 | 125410
8 | 27:52.11 | 4:15.03 | 125411 | 144538
9 | 32:07.14 | 3:30.36 | 144539 | 160324
10 | 35:37.50 | 2:44.01 | 160325 | 172625
11 | 38:21.51 | 1:56.30 | 172626 | 181355
12 | 40:18.06 | 3:46.70 | 181356 | 198375
13 | 44:05.01 | 2:53.60 | 198376 | 211410
14 | 46:58.61 | 1:58.04 | 211411 | 220264
15 | 48:56.65 | 4:22.42 | 220265 | 239956
Track 1
Filename C:\Users\Patricia\MIS RIPEOS\CSYVALadyOfThe80s\Compay Segundo - Yo Vengo Aqui (1996)\01 - Yo Vengo Aquí.wav
Pre-gap length 0:00:02.00
Peak level 97.7 %
Extraction speed 2.5 X
Track quality 100.0 %
Copy CRC E88EB84B
Track not present in AccurateRip database
Copy OK
Track 2
Filename C:\Users\Patricia\MIS RIPEOS\CSYVALadyOfThe80s\Compay Segundo - Yo Vengo Aqui (1996)\02 - Sabroso.wav
Peak level 95.9 %
Extraction speed 2.7 X
Track quality 100.0 %
Copy CRC BD09593A
Track not present in AccurateRip database
Copy OK
Track 3
Filename C:\Users\Patricia\MIS RIPEOS\CSYVALadyOfThe80s\Compay Segundo - Yo Vengo Aqui (1996)\03 - Chicharrones.wav
Peak level 96.7 %
Extraction speed 2.7 X
Track quality 99.9 %
Copy CRC 61289A06
Track not present in AccurateRip database
Copy OK
Track 4
Filename C:\Users\Patricia\MIS RIPEOS\CSYVALadyOfThe80s\Compay Segundo - Yo Vengo Aqui (1996)\04 - Macusa.wav
Pre-gap length 0:00:03.04
Peak level 97.7 %
Extraction speed 3.2 X
Track quality 100.0 %
Copy CRC F05FA395
Track not present in AccurateRip database
Copy OK
Track 5
Filename C:\Users\Patricia\MIS RIPEOS\CSYVALadyOfThe80s\Compay Segundo - Yo Vengo Aqui (1996)\05 - Ahora Me Da Pena.wav
Peak level 93.8 %
Extraction speed 3.0 X
Track quality 99.9 %
Copy CRC 9E635C05
Track not present in AccurateRip database
Copy OK
Track 6
Filename C:\Users\Patricia\MIS RIPEOS\CSYVALadyOfThe80s\Compay Segundo - Yo Vengo Aqui (1996)\06 - Mi Calderito.wav
Peak level 96.0 %
Extraction speed 3.6 X
Track quality 100.0 %
Copy CRC 55E26D19
Track not present in AccurateRip database
Copy OK
Track 7
Filename C:\Users\Patricia\MIS RIPEOS\CSYVALadyOfThe80s\Compay Segundo - Yo Vengo Aqui (1996)\07 - Silencio.wav
Peak level 94.0 %
Extraction speed 3.6 X
Track quality 100.0 %
Copy CRC 36447ACE
Track not present in AccurateRip database
Copy OK
Track 8
Filename C:\Users\Patricia\MIS RIPEOS\CSYVALadyOfThe80s\Compay Segundo - Yo Vengo Aqui (1996)\08 - Hey Caramba.wav
Peak level 93.4 %
Extraction speed 3.5 X
Track quality 99.9 %
Copy CRC 3D4BBB41
Track not present in AccurateRip database
Copy OK
Track 9
Filename C:\Users\Patricia\MIS RIPEOS\CSYVALadyOfThe80s\Compay Segundo - Yo Vengo Aqui (1996)\09 - Quien Te Bautizó (Vicenta).wav
Peak level 97.4 %
Extraction speed 3.9 X
Track quality 100.0 %
Copy CRC 218135F5
Track not present in AccurateRip database
Copy OK
Track 10
Filename C:\Users\Patricia\MIS RIPEOS\CSYVALadyOfThe80s\Compay Segundo - Yo Vengo Aqui (1996)\10 - Se Secó El Arroyito.wav
Peak level 97.4 %
Extraction speed 3.3 X
Track quality 99.9 %
Copy CRC 64CDD08F
Track not present in AccurateRip database
Copy OK
Track 11
Filename C:\Users\Patricia\MIS RIPEOS\CSYVALadyOfThe80s\Compay Segundo - Yo Vengo Aqui (1996)\11 - Orgullecida.wav
Peak level 94.2 %
Extraction speed 3.6 X
Track quality 100.0 %
Copy CRC B71ACB11
Track not present in AccurateRip database
Copy OK
Track 12
Filename C:\Users\Patricia\MIS RIPEOS\CSYVALadyOfThe80s\Compay Segundo - Yo Vengo Aqui (1996)\12 - Clarabella.wav
Peak level 95.7 %
Extraction speed 4.4 X
Track quality 100.0 %
Copy CRC 7C46E674
Track not present in AccurateRip database
Copy OK
Track 13
Filename C:\Users\Patricia\MIS RIPEOS\CSYVALadyOfThe80s\Compay Segundo - Yo Vengo Aqui (1996)\13 - Sarandonga.wav
Pre-gap length 0:00:02.22
Peak level 95.9 %
Extraction speed 4.4 X
Track quality 100.0 %
Copy CRC 0167304B
Track not present in AccurateRip database
Copy OK
Track 14
Filename C:\Users\Patricia\MIS RIPEOS\CSYVALadyOfThe80s\Compay Segundo - Yo Vengo Aqui (1996)\14 - Virgen Del Pino.wav
Pre-gap length 0:00:02.35
Peak level 97.5 %
Extraction speed 4.1 X
Track quality 100.0 %
Copy CRC BCF26DFA
Track not present in AccurateRip database
Copy OK
Track 15
Filename C:\Users\Patricia\MIS RIPEOS\CSYVALadyOfThe80s\Compay Segundo - Yo Vengo Aqui (1996)\15 - Chan Chan.wav
Pre-gap length 0:00:01.42
Peak level 96.9 %
Extraction speed 4.8 X
Track quality 100.0 %
Copy CRC C68563FB
Track not present in AccurateRip database
Copy OK
None of the tracks are present in the AccurateRip database
No errors occurred
End of status report
==== Log checksum 957A4E4099E6B77C0B7C687AD5E57084B795ED13ED2E5D341434721475EDD8C6 ====
 
Содержание индексной карты (.CUE)
REM GENRE "Son Cubano"
REM DATE 1996
REM DISCID C80C7F0F
REM COMMENT "ExactAudioCopy v1.0b1"
PERFORMER "Compay Segundo"
TITLE "Yo Vengo Aquн"
FILE "01 - Yo Vengo Aquн.wav" WAVE
TRACK 01 AUDIO
TITLE "Yo Vengo Aquн"
PERFORMER "Compay Segundo"
INDEX 01 00:00:00
FILE "02 - Sabroso.wav" WAVE
TRACK 02 AUDIO
TITLE "Sabroso"
PERFORMER "Compay Segundo"
INDEX 01 00:00:00
FILE "03 - Chicharrones.wav" WAVE
TRACK 03 AUDIO
TITLE "Chicharrones"
PERFORMER "Compay Segundo"
INDEX 01 00:00:00
TRACK 04 AUDIO
TITLE "Macusa"
PERFORMER "Compay Segundo"
INDEX 00 04:26:68
FILE "04 - Macusa.wav" WAVE
INDEX 01 00:00:00
FILE "05 - Ahora Me Da Pena.wav" WAVE
TRACK 05 AUDIO
TITLE "Ahora Me Da Pena"
PERFORMER "Compay Segundo"
INDEX 01 00:00:00
FILE "06 - Mi Calderito.wav" WAVE
TRACK 06 AUDIO
TITLE "Mi Calderito"
PERFORMER "Compay Segundo"
INDEX 01 00:00:00
FILE "07 - Silencio.wav" WAVE
TRACK 07 AUDIO
TITLE "Silencio"
PERFORMER "Compay Segundo"
INDEX 01 00:00:00
FILE "08 - Hey Caramba.wav" WAVE
TRACK 08 AUDIO
TITLE "Hey Caramba"
PERFORMER "Compay Segundo"
INDEX 01 00:00:00
FILE "09 - Quien Te Bautizу (Vicenta).wav" WAVE
TRACK 09 AUDIO
TITLE "Quien Te Bautizу (Vicenta)"
PERFORMER "Compay Segundo"
INDEX 01 00:00:00
FILE "10 - Se Secу El Arroyito.wav" WAVE
TRACK 10 AUDIO
TITLE "Se Secу El Arroyito"
PERFORMER "Compay Segundo"
INDEX 01 00:00:00
FILE "11 - Orgullecida.wav" WAVE
TRACK 11 AUDIO
TITLE "Orgullecida"
PERFORMER "Compay Segundo"
INDEX 01 00:00:00
FILE "12 - Clarabella.wav" WAVE
TRACK 12 AUDIO
TITLE "Clarabella"
PERFORMER "Compay Segundo"
INDEX 01 00:00:00
TRACK 13 AUDIO
TITLE "Sarandonga"
PERFORMER "Compay Segundo"
INDEX 00 03:44:48
FILE "13 - Sarandonga.wav" WAVE
INDEX 01 00:00:00
TRACK 14 AUDIO
TITLE "Virgen Del Pino"
PERFORMER "Compay Segundo"
INDEX 00 02:51:25
FILE "14 - Virgen Del Pino.wav" WAVE
INDEX 01 00:00:00
TRACK 15 AUDIO
TITLE "Chan Chan"
PERFORMER "Compay Segundo"
INDEX 00 01:56:37
FILE "15 - Chan Chan.wav" WAVE
INDEX 01 00:00:00
04:36
269
Нет комментариев. Ваш будет первым!