Поиск

(Latin Jazz/World Fusion) Compay Segundo - Chan Chan - 2004, FLAC (tracks+.cue), lossless

(Latin Jazz/World Fusion) Compay Segundo - Chan Chan - 2004, FLAC (tracks+.cue), lossless
Треклист:
Compay Segundo / Chan Chan
Жанр: Latin Jazz/World Fusion
Страна-производитель диска: UK
Год издания: 2004
Издатель (лейбл): Havana Nites
Номер по каталогу: HN015
Страна: Cuba
Аудиокодек: FLAC (*.flac)
Тип рипа: tracks+.cue
Битрейт аудио: lossless
Продолжительность: 49:25
Источник (релизер): internet
Наличие сканов в содержимом раздачи: да
Треклист:
01 Chan Chan (4:30)
02 La Juma De Ayer (2:49)
03 Sera Cuando Tu Digas (2:48)
04 Sigue El Paso No.1 (2:48)
05 Anita (2:43)
06 La Mujer De Peso (2:28)
07 Lupina (3:29)
08 La Ternera (4:53)
09 La Trova (3:40)
10 Saludo Compay (4:14)
11 Quien Te Bautizo (Vicenta) (4:12)
12 Casabe Y Macho (3:23)
13 Ses Seco El Arroyito (3:59)
14 Yo Soi Del Monte Compay (3:26)
 
Лог создания рипа
EAC extraction logfile from 2. April 2006, 1:48 for CD
Compay Segundo / Chan Chan
Used drive : PLEXTOR DVDR PX-712A Adapter: 1 ID: 0
Read mode : Secure with NO C2, accurate stream, disable cache
Read offset correction : 30
Overread into Lead-In and Lead-Out : Yes
Used output format : D:\Tools\Rip\EAC\flac.exe (User Defined Encoder)
320 kBit/s
Additional command line options : -8 -V -T "ARTIST=%a" -T "TITLE=%t" -T "ALBUM=%g" -T "DATE=%y" -T "TRACKNUMBER=%n" -T "GENRE=%m" -T "COMMENT=EAC Flac 1.1.2 -5" %s
Other options :
Fill up missing offset samples with silence : Yes
Delete leading and trailing silent blocks : No
Installed external ASPI interface
Track 1
Filename C:\01 - Chan Chan.wav
Pre-gap length 0:00:02.00
Peak level 82.5 %
Track quality 100.0 %
Test CRC 69F84867
Copy CRC 69F84867
Copy OK
Track 2
Filename C:\02 - La Juma De Ayer.wav
Pre-gap length 0:00:02.00
Peak level 91.3 %
Track quality 99.9 %
Test CRC E37E233A
Copy CRC E37E233A
Copy OK
Track 3
Filename C:\03 - Sera Cuando Tu Digas.wav
Pre-gap length 0:00:02.00
Peak level 88.5 %
Track quality 100.0 %
Test CRC 2569B40D
Copy CRC 2569B40D
Copy OK
Track 4
Filename C:\04 - Sigue El Paso No.1.wav
Pre-gap length 0:00:02.00
Peak level 87.1 %
Track quality 99.9 %
Test CRC 388DF6E5
Copy CRC 388DF6E5
Copy OK
Track 5
Filename C:\05 - Anita.wav
Pre-gap length 0:00:02.00
Peak level 85.3 %
Track quality 100.0 %
Test CRC B874B44C
Copy CRC B874B44C
Copy OK
Track 6
Filename C:\06 - La Mujer De Peso.wav
Pre-gap length 0:00:02.00
Peak level 85.8 %
Track quality 99.9 %
Test CRC 4C784340
Copy CRC 4C784340
Copy OK
Track 7
Filename C:\07 - Lupina.wav
Pre-gap length 0:00:02.00
Peak level 82.7 %
Track quality 99.9 %
Test CRC E93FDC58
Copy CRC E93FDC58
Copy OK
Track 8
Filename C:\08 - La Ternera.wav
Pre-gap length 0:00:02.00
Peak level 78.3 %
Track quality 100.0 %
Test CRC 85FE4E19
Copy CRC 85FE4E19
Copy OK
Track 9
Filename C:\09 - La Trova.wav
Pre-gap length 0:00:02.00
Peak level 67.4 %
Track quality 100.0 %
Test CRC CBCAA5A8
Copy CRC CBCAA5A8
Copy OK
Track 10
Filename C:\10 - Saludo Compay.wav
Pre-gap length 0:00:02.00
Peak level 81.2 %
Track quality 100.0 %
Test CRC 321B52B2
Copy CRC 321B52B2
Copy OK
Track 11
Filename C:\11 - Quien Te Bautizo (Vicenta).wav
Pre-gap length 0:00:02.00
Peak level 72.2 %
Track quality 99.9 %
Test CRC 84E90EFA
Copy CRC 84E90EFA
Copy OK
Track 12
Filename C:\12 - Casabe Y Macho.wav
Pre-gap length 0:00:02.00
Peak level 88.9 %
Track quality 100.0 %
Test CRC 08256D50
Copy CRC 08256D50
Copy OK
Track 13
Filename C:\13 - Ses Seco El Arroyito.wav
Pre-gap length 0:00:02.00
Peak level 78.2 %
Track quality 100.0 %
Test CRC 736A9D9A
Copy CRC 736A9D9A
Copy OK
Track 14
Filename C:\14 - Yo Soi Del Monte Compay.wav
Pre-gap length 0:00:02.00
Peak level 99.8 %
Track quality 100.0 %
Test CRC C530EB2E
Copy CRC C530EB2E
Copy OK
No errors occured
End of status report
 
Содержание индексной карты (.CUE)
REM GENRE Latin
REM DATE 2004
REM DISCID B90B940E
REM COMMENT "ExactAudioCopy v0.95b2"
PERFORMER "Compay Segundo"
TITLE "Chan Chan"
FILE "01 - Chan Chan.flac" FLAC
TRACK 01 AUDIO
TITLE "Chan Chan"
PERFORMER "Compay Segundo"
INDEX 01 00:00:00
TRACK 02 AUDIO
TITLE "La Juma De Ayer"
PERFORMER "Compay Segundo"
INDEX 00 04:28:14
FILE "02 - La Juma De Ayer.flac" FLAC
INDEX 01 00:00:00
TRACK 03 AUDIO
TITLE "Sera Cuando Tu Digas"
PERFORMER "Compay Segundo"
INDEX 00 02:47:01
FILE "03 - Sera Cuando Tu Digas.flac" FLAC
INDEX 01 00:00:00
TRACK 04 AUDIO
TITLE "Sigue El Paso No.1"
PERFORMER "Compay Segundo"
INDEX 00 02:46:17
FILE "04 - Sigue El Paso No.1.flac" FLAC
INDEX 01 00:00:00
TRACK 05 AUDIO
TITLE "Anita"
PERFORMER "Compay Segundo"
INDEX 00 02:46:25
FILE "05 - Anita.flac" FLAC
INDEX 01 00:00:00
TRACK 06 AUDIO
TITLE "La Mujer De Peso"
PERFORMER "Compay Segundo"
INDEX 00 02:41:07
FILE "06 - La Mujer De Peso.flac" FLAC
INDEX 01 00:00:00
TRACK 07 AUDIO
TITLE "Lupina"
PERFORMER "Compay Segundo"
INDEX 00 02:26:05
FILE "07 - Lupina.flac" FLAC
INDEX 01 00:00:00
TRACK 08 AUDIO
TITLE "La Ternera"
PERFORMER "Compay Segundo"
INDEX 00 03:26:63
FILE "08 - La Ternera.flac" FLAC
INDEX 01 00:00:00
TRACK 09 AUDIO
TITLE "La Trova"
PERFORMER "Compay Segundo"
INDEX 00 04:51:46
FILE "09 - La Trova.flac" FLAC
INDEX 01 00:00:00
TRACK 10 AUDIO
TITLE "Saludo Compay"
PERFORMER "Compay Segundo"
INDEX 00 03:37:73
FILE "10 - Saludo Compay.flac" FLAC
INDEX 01 00:00:00
TRACK 11 AUDIO
TITLE "Quien Te Bautizo (Vicenta)"
PERFORMER "Compay Segundo"
INDEX 00 04:11:72
FILE "11 - Quien Te Bautizo (Vicenta).flac" FLAC
INDEX 01 00:00:00
TRACK 12 AUDIO
TITLE "Casabe Y Macho"
PERFORMER "Compay Segundo"
INDEX 00 04:10:49
FILE "12 - Casabe Y Macho.flac" FLAC
INDEX 01 00:00:00
TRACK 13 AUDIO
TITLE "Ses Seco El Arroyito"
PERFORMER "Compay Segundo"
INDEX 00 03:21:33
FILE "13 - Ses Seco El Arroyito.flac" FLAC
INDEX 01 00:00:00
TRACK 14 AUDIO
TITLE "Yo Soi Del Monte Compay"
PERFORMER "Compay Segundo"
INDEX 00 03:56:65
FILE "14 - Yo Soi Del Monte Compay.flac" FLAC
INDEX 01 00:00:00
 
Лог проверки качества
AUDIOCHECKER v2.0 beta (build 457) - by Dester - opdester@freemail.hu
~~~~~~~~~~~~~~~~~~~~~~~~~~~~~~~~~~
Started at: четверг, 16. 08. 2012. - 18:29.33
14 files found
01 -===- F:\Отстой\Compay Segundo - Chan Chan (2004) [FLAC]\01 - Chan Chan.flac
Extracted successfully
Conclusion: this track is CDDA with probability 100%
Tempfile successfully deleted.
02 -===- F:\Отстой\Compay Segundo - Chan Chan (2004) [FLAC]\02 - La Juma De Ayer.flac
Extracted successfully
Conclusion: this track is CDDA with probability 100%
Tempfile successfully deleted.
03 -===- F:\Отстой\Compay Segundo - Chan Chan (2004) [FLAC]\03 - Sera Cuando Tu Digas.flac
Extracted successfully
Conclusion: this track is CDDA with probability 100%
Tempfile successfully deleted.
04 -===- F:\Отстой\Compay Segundo - Chan Chan (2004) [FLAC]\04 - Sigue El Paso No.1.flac
Extracted successfully
Conclusion: this track is CDDA with probability 99%
Tempfile successfully deleted.
05 -===- F:\Отстой\Compay Segundo - Chan Chan (2004) [FLAC]\05 - Anita.flac
Extracted successfully
Conclusion: this track is CDDA with probability 100%
Tempfile successfully deleted.
06 -===- F:\Отстой\Compay Segundo - Chan Chan (2004) [FLAC]\06 - La Mujer De Peso.flac
Extracted successfully
Conclusion: this track is CDDA with probability 100%
Tempfile successfully deleted.
07 -===- F:\Отстой\Compay Segundo - Chan Chan (2004) [FLAC]\07 - Lupina.flac
Extracted successfully
Conclusion: this track is CDDA with probability 100%
Tempfile successfully deleted.
08 -===- F:\Отстой\Compay Segundo - Chan Chan (2004) [FLAC]\08 - La Ternera.flac
Extracted successfully
Conclusion: this track is CDDA with probability 100%
Tempfile successfully deleted.
09 -===- F:\Отстой\Compay Segundo - Chan Chan (2004) [FLAC]\09 - La Trova.flac
Extracted successfully
Conclusion: this track is CDDA with probability 100%
Tempfile successfully deleted.
10 -===- F:\Отстой\Compay Segundo - Chan Chan (2004) [FLAC]\10 - Saludo Compay.flac
Extracted successfully
Conclusion: this track is CDDA with probability 100%
Tempfile successfully deleted.
11 -===- F:\Отстой\Compay Segundo - Chan Chan (2004) [FLAC]\11 - Quien Te Bautizo (Vicenta).flac
Extracted successfully
Conclusion: this track is CDDA with probability 100%
Tempfile successfully deleted.
12 -===- F:\Отстой\Compay Segundo - Chan Chan (2004) [FLAC]\12 - Casabe Y Macho.flac
Extracted successfully
Conclusion: this track is CDDA with probability 100%
Tempfile successfully deleted.
13 -===- F:\Отстой\Compay Segundo - Chan Chan (2004) [FLAC]\13 - Ses Seco El Arroyito.flac
Extracted successfully
Conclusion: this track is CDDA with probability 100%
Tempfile successfully deleted.
14 -===- F:\Отстой\Compay Segundo - Chan Chan (2004) [FLAC]\14 - Yo Soi Del Monte Compay.flac
Extracted successfully
Conclusion: this track is CDDA with probability 100%
Tempfile successfully deleted.
Finished at: четверг, 16. 08. 2012. - 18:38.33 (operation time: 0:08.59)
03:33
292
Нет комментариев. Ваш будет первым!