Поиск

(Latin Jazz/Soul/Boogaloo/Salsa/60-70's) Willie Bobo & The Bo-Gents- Do What You Want To Do (Vampi Soul cd) - 2006, APE (image+.cue), lossless

(Latin Jazz/Soul/Boogaloo/Salsa/60-70's) Willie Bobo & The Bo-Gents- Do What You Want To Do (Vampi Soul cd) - 2006, APE (image+.cue), lossless
Треклист:
Willie Bobo & The Bo-Gents- Do What You Want To Do (Vampi Soul cd)
Жанр: Latin Jazz/Soul/Boogaloo/Salsa/60-70's
Год выпуска диска: 2006
Производитель диска: Spain / Vampi Soul rec.
Аудио кодек: APE
Тип рипа: image+.cue
Битрейт аудио: lossless
Продолжительность: 41:31
Трэклист:
1. DO WHAT YOU WANT TO DO
2. SHUT UP AND PAY ATTENTION
3. DINDI
4. COME TOGETHER
5. SOUL FOO YONG
6. BROASTED OR FRIED
7. THRILL IS GONE
8. HOW CAN I SAY GOODBYE
9. NEVER YOU MIND
Доп. информация:
Bass - Ernie McDaniel
Congas - Victor Pantoja
Drums - Jimmy Smith (3)
Electric Piano [Rhodes] - Reggie Andrews
Engineer - Richard Sanford Orshoff
Guitar - Barry Zweig
Producer - Clarence Avant
Producer, Timbales - Willie Bobo
Saxophone [Tenor], Flute - Ron Starr
Trumpet, Flugelhorn - Steve Huffsteter
 
INFO
Willie Bobo was one of the great Latin percussionists of his time, a relentless swinger on the congas and timbales, a flamboyant showman onstage, and an engaging if modestly endowed singer. He also made serious inroads into the pop, R&B and straight jazz worlds, and he always said that his favorite song was Antonio Carlos Jobim's "Dindi." Growing up in Spanish Harlem, Bobo began on the bongos at age 14, only to find himself performing with Perez Prado a year later, studying with Mongo Santamaria while serving as his translator, and joining Tito Puente for a four-year stint at age 19. Mary Lou Williams gave Correa his nickname Bobo when they recorded together in the early '50s. After working with Cal Tjader, Herbie Mann and Santamaria with whom he recorded the evergreen Latin standard "Afro-Blue" -- Bobo stepped forward in 1963 with his first recording as a leader, with Clark Terry and Joe Farrell as sidemen. Recording for Verve in the mid-'60s, Bobo achieved his highest solo visibility with albums that enlivened pop hits of the day with Latin rhythms, spelled by sauntering originals like "Spanish Grease" and "Fried Neck Bones and Some Home Fries." In addition, Bobo played on innumerable sessions in New York, recording with artists like Miles Davis, Cannonball Adderley, Herbie Hancock, Wes Montgomery, Chico Hamilton and Sonny Stitt. In 1969, he moved to Los Angeles where he led jazz and Latin jazz combos, appeared on Bill Cosby's first comedy series (1969-1971) and short-lived 1976 variety show, and recorded on his own for Sussex, Blue Note and Columbia.
 
Отчёт EAC
Exact Audio Copy V0.99 prebeta 4 from 23. January 2008
Отчёт EAC об извлечении, выполненном 6. мая 2009, 14:27
WILLIE BOBO / do what you want to do
Дисковод: TEAC DV-W516GA Adapter: 0 ID: 0
Режим чтения : Достоверность
Использование точного потока : Да
Отключение кэша аудио : Да
Использование указателей C2 : Нет
Коррекция смещения при чтении : 12
Способность читать области Lead-in и Lead-out : Нет
Заполнение пропущенных сэмплов тишиной : Да
Удаление блоков с тишиной в начале и конце : Нет
При вычислениях CRC использовались нулевые сэмплы : Да
Интерфейс : Встроенный Win32-интерфейс для Win NT/2000
Выходной формат : Внутренние WAV-операции
Формат сэмплов : 44.100 Гц; 16 бит; стерео
TOC извлечённого CD
Трек | Старт | Длительность | Начальный сектор | Конечный сектор
---------------------------------------------------------------------
1 | 0:00.00 | 3:15.37 | 0 | 14661
2 | 3:15.37 | 3:24.65 | 14662 | 30026
3 | 6:40.27 | 5:51.36 | 30027 | 56387
4 | 12:31.63 | 5:09.10 | 56388 | 79572
5 | 17:40.73 | 4:35.37 | 79573 | 100234
6 | 22:16.35 | 4:45.32 | 100235 | 121641
7 | 27:01.67 | 5:38.68 | 121642 | 147059
8 | 32:40.60 | 3:05.13 | 147060 | 160947
9 | 35:45.73 | 5:45.74 | 160948 | 186896
Характеристики диапазона извлечения и сообщения об ошибках
Выбранный диапазон
Имя файла C:\Documents and Settings\glebov\Мои документы\Willie Bobo-Do What You Want To Do\WILLIE BOBO - do what you want to do.wav
Пиковый уровень 100.0 %
Качество диапазона 100.0 %
CRC копии E23B245C
Копирование... OK
Ошибок не произошло
AccurateRip: сводка
Трек 1 нет в базе данных
Трек 2 нет в базе данных
Трек 3 нет в базе данных
Трек 4 нет в базе данных
Трек 5 нет в базе данных
Трек 6 нет в базе данных
Трек 7 нет в базе данных
Трек 8 нет в базе данных
Трек 9 нет в базе данных
Ни одного трека нет в базе AccurateRip
Конец отчёта
Vampi Soul - это испанский лэйбл, специализирующийся на выпуске jazz/funk/soul/latin/rare groove 50-х, 60-х и 70-х годов. Они покупают права на раритетные виниловые релизы и выпускают на CD. Причем они не изменяют оформление пластинок и не "затачивают" звук под современные стандарты. В общем Vampi Soul - это винтаж и в первую очередь знак качества.http://www.vampisoul.com/ Другие раздачи Vampi Soul на rutracker.org
Download available for power users only.
06:12
215
Нет комментариев. Ваш будет первым!