Поиск

(Latin Jazz/Bolero/Sax) Bob Fleming - Interpreta Boleros Vol. 3 - 1965, FLAC (image+.cue), lossless

Bob Fleming - Interpreta Boleros Vol. 3
Жанр: Latin Jazz/Bolero/Sax
Год выпуска диска: 1965
Производитель диска: Masterpiece Music Disc (Dynascope) - MA11039 - Brazil
Источник: My CD
Аудио кодек: FLAC
Тип рипа: image+.cue
Битрейт аудио: lossless
Продолжительность: 38:55
Трэклист:
01 - Charade (H. Mancini) Just For Tonight (J. Mercer / H. Carmichael) (3:26)
02 - Sin Motivo (Gabriel Ruiz) Ay de Mi (O. Farrés) (3:15)
03 - Amor (Gabriel Ruiz / R. L. Mendes) Abrazame Asi (M. Clavel) (2:56)
04 - Accarezzame (Calvi / Nisa) Arrivederci (U. Bindi / G. Calabrese) (3:19)
05 - Star Dust (H. Carmichael / M. Parish) Fly Me To The Moon (B. Howard) (2:50)
06 - Sta Sera Pago Io (Modugno) Amapola (J. M. Lacalle) (3:59)
07 - Desesperadamente (G. Luis / R. L. Mendes) Angustia (Orlando Brito) (3:12)
08 - Rose (Michael / H. Salvador) Trop Beau (L. Amade / Gilbert Bécaud) (2:48)
09 - Acercate Más (O. Farrés) Quizas Quizas Quizas (O. Farrés) (2:55)
10 - Cuando Calienta El Sol (Carlos Rigual / Mário Rigual) Besame Mucho (Consuelo Velasquez) (3:29)
11 - Uno Pertutti (T. Remis / A. Testa / Mogol) Io Che Amo Solo Te (Sergio Endrigo) (3:12)
12 - Nessuno Al Mondo (R. Gioia) Al Di Lá (Mogol / Donida) (3:07)
 
Scans
 
Информация/Information
This is Bob Fleming – Bob Fleming Interpreta Boleros Volume 3 (1965), for Masterpiece Masters, a Musidisc label. I never found official information on which musician is behind each Bob Fleming release, but this one seems to be a Moacyr Silva session, delivering renditions of Bolero standards with his sax tenor. This cover is scaring at a first sight, but soon you will get used with the naked ladies around the sax.
 
EAC Лог
Exact Audio Copy V0.99 prebeta 5 from 4. May 2009
EAC extraction logfile from 20. January 2010, 15:42
Bob Fleming / Interpreta Boleros Vol. 3
Used drive : HL-DT-STDVDRAM GH20NS15 Adapter: 0 ID: 0
Read mode : Secure
Utilize accurate stream : Yes
Defeat audio cache : Yes
Make use of C2 pointers : No
Read offset correction : 667
Overread into Lead-In and Lead-Out : No
Fill up missing offset samples with silence : Yes
Delete leading and trailing silent blocks : No
Null samples used in CRC calculations : Yes
Used interface : Installed external ASPI interface
Used output format : User Defined Encoder
Selected bitrate : 1024 kBit/s
Quality : High
Add ID3 tag : No
Command line compressor : C:\Program Files\Exact Audio Copy\Flac\flac.exe
Additional command line options : -8 -A tukey(0.25) -A gauss(0.1875) -b 4096 -V -T "artist=%a" -T "title=%t" -T "album=%g" -T "date=%y" -T "tracknumber=%n" -T "genre=%m" %s --sector-align
TOC of the extracted CD
Track | Start | Length | Start sector | End sector
---------------------------------------------------------
1 | 0:00.00 | 3:28.70 | 0 | 15669
2 | 3:28.70 | 3:17.28 | 15670 | 30472
3 | 6:46.23 | 2:58.12 | 30473 | 43834
4 | 9:44.35 | 3:21.70 | 43835 | 58979
5 | 13:06.30 | 2:52.67 | 58980 | 71946
6 | 15:59.22 | 4:01.47 | 71947 | 90068
7 | 20:00.69 | 3:14.16 | 90069 | 104634
8 | 23:15.10 | 2:50.16 | 104635 | 117400
9 | 26:05.26 | 2:57.17 | 117401 | 130692
10 | 29:02.43 | 3:31.20 | 130693 | 146537
11 | 32:33.63 | 3:14.21 | 146538 | 161108
12 | 35:48.09 | 3:07.31 | 161109 | 175164
Range status and errors
Selected range
Filename D:\Torrents.ru\Bob Fleming\Bob Fleming - Interpreta Boleros Vol. 3\Bob Fleming - Interpreta Boleros Vol. 3.wav
Peak level 100.0 %
Range quality 99.9 %
Test CRC 9FAC3EF1
Copy CRC 9FAC3EF1
Copy OK
No errors occurred
End of status report
 
Audiochecker
AUDIOCHECKER v2.0 beta (build 457) - by Dester - opdester@freemail.hu
~~~~~~~~~~~~~~~~~~~~~~~~~~~~~~~~~~
-=== DO NOT EDIT THIS FILE! ===-
Path: ...\Bob Fleming - Interpreta Boleros Vol. 3
1 -=- Bob Fleming - Interpreta Boleros Vol. 3.flac -=- CDDA (100%)
95397540
13:00
623
Нет комментариев. Ваш будет первым!