Поиск

(Latin Jazz, World Fusion) Willie Bobo - Tomorrow Is Here - 1977 (2012 Japan Edition), FLAC (image+.cue), lossless

(Latin Jazz, World Fusion) Willie Bobo - Tomorrow Is Here - 1977 (2012 Japan Edition), FLAC (image+.cue), lossless
Треклист:
Willie Bobo - Tomorrow Is Here
Жанр: Latin Jazz, World Fusion
Страна-производитель диска: Япония
Год издания: 2012
Издатель (лейбл): EMI/Blue Note
Номер по каталогу: TOCJ-50518
Страна: США
Аудиокодек: FLAC (*.flac)
Тип рипа: image+.cue
Битрейт аудио: lossless
Продолжительность: 35:13
Источник (релизер): диск из моей коллекции
Наличие сканов в содержимом раздачи: да
Треклист:
01. Suitcase Full of Dreams (Adamo-Goe) - 3:52
02. Funk de Mambo (Andrews-Robertson-Blocker) - 3:19
03. Keep on Walking (Vannelli) - 4:30
04. Dreamin' (Ighner) - 5:12
05. Wacky Tobacky (The Race) (Gardner-Farrow-Cosby) - 3:01
06. Can't Stay Down Too Long (Andrews) - 3:32
07. Time After Time (Cahn-Styne) - 3:18
08. Kojak Theme (Goldenberg) - 3:36
09. A Little Tear (Gilbert-Deadato) - 4:54
 
Лог создания рипа
Exact Audio Copy V1.0 beta 3 from 29. August 2011
EAC extraction logfile from 13. March 2013, 21:56
Willie Bobo / Tomorrow Is Here
Used drive : ASUS DRW-24B1LT Adapter: 5 ID: 1
Read mode : Secure
Utilize accurate stream : Yes
Defeat audio cache : Yes
Make use of C2 pointers : No
Read offset correction : 6
Overread into Lead-In and Lead-Out : No
Fill up missing offset samples with silence : Yes
Delete leading and trailing silent blocks : No
Null samples used in CRC calculations : Yes
Used interface : Native Win32 interface for Win NT & 2000
Used output format : User Defined Encoder
Selected bitrate : 768 kBit/s
Quality : High
Add ID3 tag : No
Command line compressor : C:\Program Files\Exact Audio Copy\Flac\flac.exe
Additional command line options : -8 -V -T "ARTIST=%artist%" -T "TITLE=%title%" -T "ALBUM=%albumtitle%" -T "DATE=%year%" -T "TRACKNUMBER=%tracknr%" -T "TOTALTRACKS=%numtracks%" -T "GENRE=%genre%" -T "ALBUMARTIST=%albumartist%" -T "ALBUM ARTIST=%albumartist%" -T "COMMENT=EAC Secure Mode, Test & Copy, AccurateRip, FLAC -8" %source%
TOC of the extracted CD
Track | Start | Length | Start sector | End sector
---------------------------------------------------------
1 | 0:00.00 | 3:51.39 | 0 | 17363
2 | 3:51.39 | 3:18.54 | 17364 | 32267
3 | 7:10.18 | 4:29.45 | 32268 | 52487
4 | 11:39.63 | 5:11.40 | 52488 | 75852
5 | 16:51.28 | 3:01.05 | 75853 | 89432
6 | 19:52.33 | 3:31.50 | 89433 | 105307
7 | 23:24.08 | 3:18.36 | 105308 | 120193
8 | 26:42.44 | 3:35.64 | 120194 | 136382
9 | 30:18.33 | 4:54.27 | 136383 | 158459
Range status and errors
Selected range
Filename F:\audio\Willie Bobo - Tomorrow Is Here.wav
Peak level 97.3 %
Extraction speed 5.1 X
Range quality 100.0 %
Test CRC 44FB3B91
Copy CRC 44FB3B91
Copy OK
No errors occurred
AccurateRip summary
Track 1 not present in database
Track 2 not present in database
Track 3 not present in database
Track 4 not present in database
Track 5 not present in database
Track 6 not present in database
Track 7 not present in database
Track 8 not present in database
Track 9 not present in database
None of the tracks are present in the AccurateRip database
End of status report
---- CUETools DB Plugin V2.1.3
[CTDB TOCID: PwJqtDfgUOcHgMDAraikoVhPxPo-] disk not present in database, Submit result: PwJqtDfgUOcHgMDAraikoVhPxPo- has been uploaded
==== Log checksum 92B80E4D18D4DD2FC3F1BCBFAA98512E96E04BB32760773590736BA7D0A8432D ====
 
Содержание индексной карты (.CUE)
REM GENRE Jazz
REM DATE 1977
REM DISCID 50084009
REM COMMENT "ExactAudioCopy v1.0b3"
PERFORMER "Willie Bobo"
TITLE "Tomorrow Is Here"
FILE "Willie Bobo - Tomorrow Is Here.wav" WAVE
TRACK 01 AUDIO
TITLE "Suitcase Full of Dreams"
PERFORMER "Willie Bobo"
INDEX 01 00:00:00
TRACK 02 AUDIO
TITLE "Funk de Mambo"
PERFORMER "Willie Bobo"
INDEX 00 03:50:41
INDEX 01 03:51:39
TRACK 03 AUDIO
TITLE "Keep on Walking"
PERFORMER "Willie Bobo"
INDEX 00 07:09:20
INDEX 01 07:10:18
TRACK 04 AUDIO
TITLE "Dreamin'"
PERFORMER "Willie Bobo"
INDEX 00 11:38:65
INDEX 01 11:39:63
TRACK 05 AUDIO
TITLE "Wacky Tobacky (The Race)"
PERFORMER "Willie Bobo"
INDEX 00 16:50:30
INDEX 01 16:51:28
TRACK 06 AUDIO
TITLE "Can't Stay Down Too Long"
PERFORMER "Willie Bobo"
INDEX 00 19:51:35
INDEX 01 19:52:33
TRACK 07 AUDIO
TITLE "Time After Time"
PERFORMER "Willie Bobo"
INDEX 00 23:23:10
INDEX 01 23:24:08
TRACK 08 AUDIO
TITLE "Kojak Theme"
PERFORMER "Willie Bobo"
INDEX 00 26:41:46
INDEX 01 26:42:44
TRACK 09 AUDIO
TITLE "A Little Tear"
PERFORMER "Willie Bobo"
INDEX 00 30:17:35
INDEX 01 30:18:33
 
Review by Richard S. Ginell
Willie Bobo's only LP for Blue Note came at a point well past the label's heyday, when crossover was its primary focus. Hence Tomorrow Is Here has a pronounced '70s R&B/funk feel, with synthesizers, envelope followers, electric pianos, guitars and occasional strings interwoven with Bobo's steady Latin congas, timbales and self-effacing vocals. But there are a few gems to be found here -- one in particular. The leadoff track "Suitcase Full Of Dreams" is a great, haunting, Latin-accented song about a journeyman musician's life on the road that should have become a standard but is now almost completely forgotten. Karma's Reggie Andrews sits in on keyboards to give the record its contemporary sound; the other participants are L.A. sessionmen. Bobo's engaging personality, the injected Latin element, and "Suitcase" are what makes this otherwise dated record come alive.
 
Состав
Willie Bobo - vocals, percussion
Gary Grant, Ron King, Nolan Smith - trumpet
Thurman Green, George Bohanon - trombone
Ray Pizzi, Ernie Watts - saxophone
Gary Herbig - reeds
Reggie Andrews, Larry Farrow, David Garfield - keyboards
Dennis Budimir, Sidney Muldrow, Craig McMullen, John Cadrecha, Curtis Robertson Jr. - guitar
Jim Hughart, David Troncoso, Dean Cortez - bass
James Gadson, Jeff Porcaro, Gary Denton, Carlos Vega - drums
Victor Pantoja - percussion
Sandi Erwin, Benard Ighner - vocals
Recorded at Oceanway Studios in Los Angeles, CA in October, 1976 - January, 1977.
09:53
284
Нет комментариев. Ваш будет первым!