Поиск

(Latin Jazz, World Fusion) Willie Bobo - Talkin' Verve (1965-1968) - 1997, FLAC (image+.cue), lossless

(Latin Jazz, World Fusion) Willie Bobo - Talkin' Verve (1965-1968) - 1997, FLAC (image+.cue), lossless
Треклист:
Willie Bobo - Talkin' Verve (1965-1968)
Жанр: Latin Jazz, World Fusion
Страна-производитель диска: USA
Год издания диска: 1997
Издатель (лейбл): Verve
Номер по каталогу: 537 575-2
Аудио кодек: FLAC (*.flac)
Тип рипа: image+.cue
Битрейт аудио: lossless
Продолжительность: 56:13
Наличие сканов в содержимом раздачи: yes
Источник (релизер): jbc (thanks hungaropitecus)

Треклист:
1. Grazing in the Grass
2. Lisa
3. Black Coffee
4. The Look of Love
5. Dreams
6. Evil Ways
7. Night Song
8. Mercy, Mercy, Mercy
9. Roots
10. Spanish Grease
11. Shot Gun / Blind Man, Blind Man
12. Stuff
13. Night Walk
14. Fried Neck Bones and Some Homefries
15. Sham Time
Recorded at different locations in 1965-1968 (компиляция лучших вещей с альбомов, выпущенных Verve в указанный период).
 
Исполнители
Willie Bobo - Percussion and Vocals
Osualdo Martinez - Percussion
Victor Pantoja - Percussion
John Rodriguez - Percussion
Jack Jennings - Percussion
Jose Mangual - PercussionBobby Brown - Alto and Tenor Saxophone
Kenny Rogers - Alto and Tenor Saxophone
Phil Bodner - Flute and Alto Saxophone
Jimmy Owens - Trumpet
Melvin Lastie - Cornet
Felix Wilkins - Flute
Stan Webb - FluteSonny Henry - Guitar
Chuck Rainey - Bass Guitar
Jon Hart - Double Bass
Richard Davis - Double Bass
Patato Valdez - Conga
Freddie Waits - Drums
 
Лог ЕАС
Exact Audio Copy V0.99 prebeta 4 from 23. January 2008
EAC extraction logfile from 21. August 2010, 12:49
Willie Bobo / Talkin' Verve
Used drive : _NEC DVD_RW ND-3500AG Adapter: 0 ID: 0
Read mode : Secure
Utilize accurate stream : Yes
Defeat audio cache : Yes
Make use of C2 pointers : No
Read offset correction : 48
Overread into Lead-In and Lead-Out : No
Fill up missing offset samples with silence : Yes
Delete leading and trailing silent blocks : No
Null samples used in CRC calculations : Yes
Used interface : Native Win32 interface for Win NT & 2000
Used output format : User Defined Encoder
Selected bitrate : 768 kBit/s
Quality : High
Add ID3 tag : No
Command line compressor : C:\Program Files\Exact Audio Copy\FLAC\FLAC.EXE
Additional command line options : -6 -V -T "ARTIST=%a" -T "TITLE=%t" -T "ALBUM=%g" -T "DATE=%y" -T "TRACKNUMBER=%n" -T "GENRE=%m" -T "COMMENT=%e" %s -o %d
TOC of the extracted CD
Track | Start | Length | Start sector | End sector
---------------------------------------------------------
1 | 0:00.00 | 5:26.17 | 0 | 24466
2 | 5:26.17 | 6:14.35 | 24467 | 52551
3 | 11:40.52 | 2:44.43 | 52552 | 64894
4 | 14:25.20 | 4:18.47 | 64895 | 84291
5 | 18:43.67 | 3:25.63 | 84292 | 99729
6 | 22:09.55 | 2:40.62 | 99730 | 111791
7 | 24:50.42 | 2:44.70 | 111792 | 124161
8 | 27:35.37 | 2:36.35 | 124162 | 135896
9 | 30:11.72 | 3:19.20 | 135897 | 150841
10 | 33:31.17 | 2:49.63 | 150842 | 163579
11 | 36:21.05 | 5:14.17 | 163580 | 187146
12 | 41:35.22 | 2:41.15 | 187147 | 199236
13 | 44:16.37 | 3:07.18 | 199237 | 213279
14 | 47:23.55 | 3:04.12 | 213280 | 227091
15 | 50:27.67 | 5:45.63 | 227092 | 253029
Range status and errors
Selected range
Filename J:\eMusic\Rip\Willie Bobo - Talkin' Verve.wav
Peak level 100.0 %
Range quality 99.9 %
Test CRC FE0E3358
Copy CRC FE0E3358
Copy OK
No errors occurred
AccurateRip summary
Track 1 accurately ripped (confidence 3) [780D5593]
Track 2 accurately ripped (confidence 3) [5C565B6F]
Track 3 accurately ripped (confidence 3) [5977EF54]
Track 4 accurately ripped (confidence 3) [53F12438]
Track 5 accurately ripped (confidence 3) [1C2BF649]
Track 6 accurately ripped (confidence 3) [6EB9BA2D]
Track 7 accurately ripped (confidence 3) [28E62C10]
Track 8 accurately ripped (confidence 3) [2D0529BF]
Track 9 accurately ripped (confidence 3) [DE632F0E]
Track 10 accurately ripped (confidence 3) [68D838FE]
Track 11 accurately ripped (confidence 3) [7E12C7E1]
Track 12 accurately ripped (confidence 3) [B061EED8]
Track 13 accurately ripped (confidence 3) [8A9C2401]
Track 14 accurately ripped (confidence 3) [9D1911D0]
Track 15 accurately ripped (confidence 3) [0CDFCA1A]
All tracks accurately ripped
End of status report
 
Инфо
Уилли Бобо ((Willie Bobo), настоящее имя - Уильям Корреа (William Correa)) - американский джазовый перкуссионист, вокалист, композитор. Родился 28 февраля 1934 года в Нью-Йорке, родители были из Пуэрто-Рико и детство его прошло в испанской части Гарлема, что не могло не отразиться на будущих музыкальных предпочтениях. Перкуссию начал осваивать самостоятельно в возрасте 14 лет. Дебютировал на сцене в афро-кубинском оркестре Мачито - одном из самых популярных ансамблей латинской музыки в то время. В 1950-ом из Гаваны в Нью-Йорк приехал знаменитый перкуссионист Рамон "Монго" Сантамария. Уильяму повезло попасть к нему переводчиком, а затем и брать у того уроки игры. В 50-е годы он выступал с пианисткой Мэри Лу Уильямс, которая предложила Уилли взять сценический псевдоним "Бобо" (одно из значений этого испанского слова - "весельчак", что хорошо подходило характеру музыканта). В 1953-57 годах работал в оркестре мультиинструменталиста Тито Пуэнте, покинув его сотрудничал с вибрафонистом Кэлом Тжадером в его Modern Mambo Quintet (1958-1961). В 1960-ом объединившись со своим бывшим учителем Сантамарией Бобо участвовал в записи альбома “Sabroso!”, а вскоре заключил контракт - сперва с Roulette, затем с Verve - и начал выпускать "лидерские" пластинки (“Bobo's Beat” , “Spanish Grease” (с одноименным знаменитым хитом), “Juicy” “Spanish Blues Band”, “Uno Dos Tres”), с которыми быстро вошел в число известнейших, ключевых исполнителей в стилях Latin Jazz, Afro-Cuban Jazz. В эти годы он выступал с Майлзом Дэвисом, Кэннанболом Эддерли, Хэрби Хэнкоком, Чико Хэмилтоном, Уэсом Монтгомери... В 1969 году Уилли переехал в Лос-Анджелес, где работал на TV, а также сессионным музыкантом у Карлоса Сантаны (перепевшего несколько песен Бобо). С ним же снимался в Гане в документально-музыкальном фильме "Soul to Soul" (1971), в конце 70-х выпустил еще пару альбомов на Blue Note и Columbia Records и с большим успехом выступил с Диззи Гиллеспи на фестивале в Монтерее, 1978. Скончался Уилли Бобо от рака 15 сентября 1983 года. Сын музыканта Эрик Бобо также стал известным перкуссионистом, играет в группе Cypress Hill. В 2006 он издал диск " Willie Bobo. Lost and Found" с ранее неизвестными записями (allaboutjazz, Wiki, lastfm).
17:15
251
Нет комментариев. Ваш будет первым!