Поиск

(Latin Jazz, World Fusion) Ray Vega - Squeeze, Squeeze - 2004, FLAC (image+.cue), lossless

(Latin Jazz, World Fusion) Ray Vega - Squeeze, Squeeze - 2004, FLAC (image+.cue), lossless
Треклист:
Ray Vega – Squeeze, Squeeze
Жанр: Latin Jazz, World Fusion
Год издания: 2004
Издатель (лейбл): Palmetto Records
Номер по каталогу: PM 2097
Аудиокодек: FLAC (*.flac)
Тип рипа: image+.cue
Битрейт аудио: lossless
Продолжительность: 54:19
Rip by dreadbull
Наличие сканов в содержимом раздачи: да
Треклист:
01. Black Nile (4:12)
02. Smile, You're In Beirut (4:06)
03. Contemplation (7:59)
04. Ne Quitez Pas (4:42)
05. Squeeze, Squeeze (5:41)
06. Both (6:04)
07. Salazar (6:11)
08. Sky! (4:46)
09. Crescent Mood (6:10)
10. La Tercera (4:29)
Personnel:
Ray Vega - trumpet, rotary valve trumpet, chekeré, cowbell, percussion
Bobby Porcelli - alto sax
Igor Atalita - piano
Gregg August - acoustic bass
Wilson "Chembo" Corniel - congas, chekeré, percussion
Adam Weber - drums, chekeré
Rec.: Maggie's Farm, August 19 & 20, 2003.
 
 
Лог создания рипа
Exact Audio Copy V1.0 beta 3 from 29. August 2011
EAC extraction logfile from 28. October 2012, 14:48
Ray Vega / squeeze Squeeze
Used drive : ASUS DRW-22B2L Adapter: 0 ID: 0
Read mode : Secure
Utilize accurate stream : Yes
Defeat audio cache : Yes
Make use of C2 pointers : No
Read offset correction : 6
Overread into Lead-In and Lead-Out : No
Fill up missing offset samples with silence : Yes
Delete leading and trailing silent blocks : No
Null samples used in CRC calculations : Yes
Used interface : Native Win32 interface for Win NT & 2000
Used output format : User Defined Encoder
Selected bitrate : 128 kBit/s
Quality : High
Add ID3 tag : Yes
Command line compressor : C:\Program Files\FLAC\flac.exe
Additional command line options : -8 -V -T "ARTIST=%artist%" -T "TITLE=%title%" -T "ALBUM=%albumtitle%" -T "DATE=%year%" -T "TRACKNUMBER=%tracknr%" -T "GENRE=%genre%" -T "PERFORMER=%albuminterpret%" -T "COMPOSER=%composer%" %haslyrics%--tag-from-file=LYRICS="%lyricsfile%"%haslyrics% -T "ALBUMARTIST=%albumartist%" -T "DISCNUMBER=%cdnumber%" -T "TOTALDISCS=%totalcds%" -T "TOTALTRACKS=%numtracks%" -T "COMMENT=%comment%" %source% -o %dest%
TOC of the extracted CD
Track | Start | Length | Start sector | End sector
---------------------------------------------------------
1 | 0:00.00 | 4:11.72 | 0 | 18896
2 | 4:11.72 | 4:05.38 | 18897 | 37309
3 | 8:17.35 | 7:59.17 | 37310 | 73251
4 | 16:16.52 | 4:41.58 | 73252 | 94384
5 | 20:58.35 | 5:40.65 | 94385 | 119949
6 | 26:39.25 | 6:04.10 | 119950 | 147259
7 | 32:43.35 | 6:10.52 | 147260 | 175061
8 | 38:54.12 | 4:46.15 | 175062 | 196526
9 | 43:40.27 | 6:10.08 | 196527 | 224284
10 | 49:50.35 | 4:28.50 | 224285 | 244434
Range status and errors
Selected range
Filename F:\Donkey Files\Ray Vega - Squeeze Squeeze (2004, Palmetto) [eac-flac-scans] byDrBull\Squeeze Squeeze.wav
Peak level 98.9 %
Extraction speed 3.0 X
Range quality 100.0 %
Test CRC 62998AC8
Copy CRC 62998AC8
Copy OK
No errors occurred
AccurateRip summary
Track 1 accurately ripped (confidence 3) [25B9C9B4] (AR v1)
Track 2 accurately ripped (confidence 3) [E02773F3] (AR v1)
Track 3 accurately ripped (confidence 2) [7FA18798] (AR v1)
Track 4 accurately ripped (confidence 2) [5AB1EFEF] (AR v1)
Track 5 accurately ripped (confidence 2) [36675F2C] (AR v1)
Track 6 accurately ripped (confidence 2) [761F6EE4] (AR v1)
Track 7 accurately ripped (confidence 2) [89A4837F] (AR v1)
Track 8 accurately ripped (confidence 2) [E20BFB9E] (AR v1)
Track 9 accurately ripped (confidence 2) [3BA3FE0E] (AR v1)
Track 10 accurately ripped (confidence 2) [A8796C0E] (AR v1)
All tracks accurately ripped
End of status report
==== Log checksum CC4D98584A6828EB10115185FB1628B58BF9F3AD42BB0C998FEB9B1F9EFAD354 ====
05:09
315
Нет комментариев. Ваш будет первым!