Поиск

(Latin Jazz, World Fusion) Ray Vega Latin Jazz Sextet - Pa'Lante - 2001, FLAC (image+.cue), lossless

(Latin Jazz, World Fusion) Ray Vega Latin Jazz Sextet - Pa'Lante - 2001, FLAC (image+.cue), lossless
Треклист:
Ray Vega Latin Jazz Sextet - Pa'Lante
Жанр: Latin Jazz, World Fusion
Страна-производитель диска: США
Год издания: 2001
Издатель (лейбл): Palmetto
Номер по каталогу: PM-2079
Аудиокодек: FLAC (*.flac)
Тип рипа: image+.cue
Битрейт аудио: lossless
Продолжительность: 57:16
Источник (релизер): dreadbull (hqshare)
Наличие сканов в содержимом раздачи: да
Треклист:
01. Flight to Jordan (Jordan) - 5:45
02. K.D. (Porcelli) - 6:46
03. Yardbird Suite (Parker) - 5:12
04. Miles Away (Vega) - 6:38
05. Descarga (Vega) - 7:03
06. Melani's Dream (Vega) - 5:57
07. El Gaucho (Shorter) - 5:52
08. Primera Oracion (Trad.) - 0:40
09. Prayer of Jabez (Vega) - 5:10
10. A Love Supreme {acknowledgement} (Coltrane) - 8:13
Состав:
Ray Vega - trumpet, flugelhorn, cornet
Bobby Porcelli - alto saxophone
Igor Atalita - piano
Boris Kozlov - bass
Willie Martinez - drums
Wilson "Chembo" Corniel - congas
Recorded at Maggie's Farm on October 15-16, 2001.
 
Лог создания рипа
Exact Audio Copy V1.0 beta 3 from 29. August 2011
EAC extraction logfile from 19. October 2012, 17:12
Ray Vega Latin Jazz Sextet / Pa'lante
Used drive : ASUS DRW-22B2L Adapter: 0 ID: 0
Read mode : Secure
Utilize accurate stream : Yes
Defeat audio cache : Yes
Make use of C2 pointers : No
Read offset correction : 6
Overread into Lead-In and Lead-Out : No
Fill up missing offset samples with silence : Yes
Delete leading and trailing silent blocks : No
Null samples used in CRC calculations : Yes
Used interface : Native Win32 interface for Win NT & 2000
Used output format : User Defined Encoder
Selected bitrate : 128 kBit/s
Quality : High
Add ID3 tag : Yes
Command line compressor : C:\Program Files\FLAC\flac.exe
Additional command line options : -8 -V -T "ARTIST=%artist%" -T "TITLE=%title%" -T "ALBUM=%albumtitle%" -T "DATE=%year%" -T "TRACKNUMBER=%tracknr%" -T "GENRE=%genre%" -T "PERFORMER=%albuminterpret%" -T "COMPOSER=%composer%" %haslyrics%--tag-from-file=LYRICS="%lyricsfile%"%haslyrics% -T "ALBUMARTIST=%albumartist%" -T "DISCNUMBER=%cdnumber%" -T "TOTALDISCS=%totalcds%" -T "TOTALTRACKS=%numtracks%" -T "COMMENT=%comment%" %source% -o %dest%
TOC of the extracted CD
Track | Start | Length | Start sector | End sector
---------------------------------------------------------
1 | 0:00.00 | 5:45.02 | 0 | 25876
2 | 5:45.02 | 6:46.33 | 25877 | 56359
3 | 12:31.35 | 5:12.25 | 56360 | 79784
4 | 17:43.60 | 6:37.40 | 79785 | 109599
5 | 24:21.25 | 7:03.00 | 109600 | 141324
6 | 31:24.25 | 5:57.12 | 141325 | 168111
7 | 37:21.37 | 5:51.68 | 168112 | 194504
8 | 43:13.30 | 0:39.55 | 194505 | 197484
9 | 43:53.10 | 5:10.17 | 197485 | 220751
10 | 49:03.27 | 8:12.53 | 220752 | 257704
Range status and errors
Selected range
Filename F:\Donkey Files\Ray Vega Latin Jazz Sextet - Pa Lante (2001, Palmetto) [eac-flac-scans] byDrBull\Pa Lante.wav
Peak level 96.2 %
Extraction speed 5.9 X
Range quality 100.0 %
Test CRC A6BA9FBB
Copy CRC A6BA9FBB
Copy OK
No errors occurred
End of status report
==== Log checksum 14A7B048D14BFA707289DE0E9A9547F5268334B9D33B059045A42F8563FF301F ====
 
Содержание индексной карты (.CUE)
REM DISCID 940D6C0A
REM COMMENT "ExactAudioCopy v1.0b3"
PERFORMER "Ray Vega Latin Jazz Sextet"
TITLE "Pa'Lante"
FILE "Ray Vega Latin Jazz Sextet - Pa'Lante.wav" WAVE
TRACK 01 AUDIO
TITLE "Flight to Jordan"
PERFORMER "Ray Vega Latin Jazz Sextet"
INDEX 01 00:00:00
TRACK 02 AUDIO
TITLE "K. D."
PERFORMER "Ray Vega Latin Jazz Sextet"
INDEX 00 05:42:30
INDEX 01 05:45:02
TRACK 03 AUDIO
TITLE "Yardbird Suite"
PERFORMER "Ray Vega Latin Jazz Sextet"
INDEX 00 12:29:65
INDEX 01 12:31:35
TRACK 04 AUDIO
TITLE "Miles Away"
PERFORMER "Ray Vega Latin Jazz Sextet"
INDEX 00 17:41:15
INDEX 01 17:43:60
TRACK 05 AUDIO
TITLE "Descarga"
PERFORMER "Ray Vega Latin Jazz Sextet"
INDEX 00 24:19:20
INDEX 01 24:21:25
TRACK 06 AUDIO
TITLE "Melani's Dream"
PERFORMER "Ray Vega Latin Jazz Sextet"
INDEX 00 31:20:50
INDEX 01 31:24:25
TRACK 07 AUDIO
TITLE "El Gaucho"
PERFORMER "Ray Vega Latin Jazz Sextet"
INDEX 00 37:19:17
INDEX 01 37:21:37
TRACK 08 AUDIO
TITLE "Primera Oracion"
PERFORMER "Ray Vega Latin Jazz Sextet"
INDEX 00 43:07:27
INDEX 01 43:13:30
TRACK 09 AUDIO
TITLE "Prayer of Jabez"
PERFORMER "Ray Vega Latin Jazz Sextet"
INDEX 01 43:53:10
TRACK 10 AUDIO
TITLE "A Love Supreme (acknowledgement)"
PERFORMER "Ray Vega Latin Jazz Sextet"
INDEX 00 48:59:50
INDEX 01 49:03:27
 
Review by David R. Adler
Ray Vega moves from Concord to Palmetto for Pa'lante, an energetic sextet outing. The trumpeter is deeply immersed in bop and post-bop, as he makes clear with imaginative Latin arrangements of Charlie Parker's "Yardbird Suite," Duke Jordan's "Flight to Jordan," Wayne Shorter's priceless "El Gaucho," and, most audaciously, the first movement of John Coltrane's A Love Supreme. (Vega's choice of cornet for the Shorter tune is interesting.) Alto saxophonist Bobby Porcelli extends the post-bop theme with an original titled "K.D.," dedicated to Kenny Dorham and based on "Alone Together" changes. Vega contributes four originals -- all good, but not as memorable as the covers. Bassist Boris Kozlov shines on the mid-tempo, minor-key "Prayer of Jabez" and a stinging arco introduction to the Coltrane piece. Pianist Igor Atalita, drummer Willie Martinez, and percussionist Wilson "Chembo" Corniel also weigh in with strong playing throughout.
04:28
322
Нет комментариев. Ваш будет первым!