Поиск

(Latin Jazz, World Fusion, Post-Bop) Wayne Wallace - Dedication - 2006, APE (image+.cue), lossless

Треклист:
Wayne Wallace - Dedication
Жанр: Latin Jazz, World Fusion, Post-Bop
Год издания диска: 2006
Издатель (лейбл): Patois
Номер по каталогу: 001
Страна: USA California - SF
Аудиокодек: APE (*.ape)
Тип рипа: image+.cue
Битрейт аудио: lossless
Продолжительность: 01:09:54
Источник (релизер): dreadbull
Наличие сканов в содержимом раздачи: да
01. Blue Image [07:29]
02. Mr. Day [05:20]
03. Dedication [07:27]
04. R.S.V.P. [07:17]
05. Pat's Song [07:14]
06. Some Day [07:38]
07. Spritual [02:53]
08. Nera [06:07]
09. Yours Truly [08:48]
10. Benin [09:41]
 
Лог создания рипа
EAC extraction logfile from 26. May 2010, 16:50 for CD
Wayne Wallace / Dedication
Used drive : PLEXTOR DVDR PX-750A Adapter: 0 ID: 1
Read mode : Secure with NO C2, accurate stream, disable cache
Read offset correction : 102
Overread into Lead-In and Lead-Out : No
Used output format : Internal WAV Routines
44.100 Hz; 16 Bit; Stereo
Other options :
Fill up missing offset samples with silence : Yes
Delete leading and trailing silent blocks : No
Installed external ASPI interface
Range status and errors
Selected range
Filename E:\Donkey Files\Wayne Wallace - Dedication (2006, Patois) [eac-ape-scans] byDrBull\CDImage.wav
Peak level 97.9 %
Range quality 99.9 %
CRC 8279779F
Copy OK
No errors occured
End of status report
 
Содержание индексной карты (.CUE)
PERFORMER "Wayne Wallace"
TITLE "Dedication"
FILE "CDImage.wav" WAVE
TRACK 01 AUDIO
TITLE "Blue Image"
PERFORMER "Wayne Wallace"
ISRC PPPPP0000000
INDEX 01 00:00:00
TRACK 02 AUDIO
TITLE "Mr. Day"
PERFORMER "Wayne Wallace"
ISRC PPPPP0000000
INDEX 01 07:29:10
TRACK 03 AUDIO
TITLE "Dedication"
PERFORMER "Wayne Wallace"
ISRC PPPPP0000000
INDEX 00 12:49:26
INDEX 01 12:51:29
TRACK 04 AUDIO
TITLE "R.S.V.P."
PERFORMER "Wayne Wallace"
ISRC PPPPP0000000
INDEX 00 20:16:07
INDEX 01 20:17:10
TRACK 05 AUDIO
TITLE "Pat's Song"
PERFORMER "Wayne Wallace"
ISRC PPPPP0000000
INDEX 00 27:33:49
INDEX 01 27:35:16
TRACK 06 AUDIO
TITLE "Some Day"
PERFORMER "Wayne Wallace"
ISRC PPPPP0000000
INDEX 00 34:47:47
INDEX 01 34:48:48
TRACK 07 AUDIO
TITLE "Spritual"
PERFORMER "Wayne Wallace"
ISRC PPPPP0000000
INDEX 00 42:25:39
INDEX 01 42:27:34
TRACK 08 AUDIO
TITLE "Nera"
PERFORMER "Wayne Wallace"
ISRC PPPPP0000000
INDEX 00 45:18:01
INDEX 01 45:20:44
TRACK 09 AUDIO
TITLE "Yours Truly"
PERFORMER "Wayne Wallace"
ISRC PPPPP0000000
INDEX 00 51:25:05
INDEX 01 51:27:49
TRACK 10 AUDIO
TITLE "Benin"
PERFORMER "Wayne Wallace"
ISRC PPPPP0000000
INDEX 00 60:13:11
INDEX 01 60:14:70
 
Состав
Wayne Wallace - trombone, arranger;
John Santos - timbales (#1-3), guiro (#2), percussion (#8), congas (#10);
Paul Van Wageningen - trap drums (#1-3,8,10);
Babatunde Lea - congas (#2,3,10), trap drums (#4-6,9), chekere (#10);
David Belove - bass;
Frank Martin - piano (#1,4-6);
Murray Low - piano (#2,3,7-10);
Andrea Brachfeld - flute (#1-3,5,6,10), piccolo (#2), alto flute (#3,8);
Mary Fettig - soprano (#1-3,6) & tenor (#9) sax, bass clarinet (#3,5,7,8,10);
Masaru Koga - alto (#1-3,5,6,9) & soprano (#10) sax, flute (#3), shakuhachi (#7);
Ron Stallings - alto sax (#10);
Hafez Modirzadeh - tenor (#1-4,6,10) & soprano (#1,3,5) sax, ney (#7);
Louis Fasman - trumpet (#1,9);
John Worley - trumpet (#2-6,10), flugelhorn (#3,5,6,8);
Jeff Cressman - trombone (#1-3,5,6,8-10)
01:57
269
Нет комментариев. Ваш будет первым!