Поиск

(Latin Jazz, World Fusion) Jorge Pardo, Josemi Carmona, Javier Colina, Jeff Ballard, Abe Rabade, Chonchi Heredia - Cafe Latino 25 Aniversario - 2012, FLAC (tracks+.cue), lossless

(Latin Jazz, World Fusion) Jorge Pardo, Josemi Carmona, Javier Colina, Jeff Ballard, Abe Rabade, Chonchi Heredia - Cafe Latino 25 Aniversario - 2012, FLAC (tracks+.cue), lossless
Треклист:
•Jorge Pardo, Josemi Carmona, Javier Colina, Jeff Ballard, Abe Rabade, Chonchi Heredia - Cafe Latino 25 Aniversario• Жанр: Latin Jazz, World Fusion
Год издания: 2012
Издатель (лейбл): Nuta Records
Номер по каталогу: KAR 7836
Аудиокодек: FLAC (*.flac)
Тип рипа: tracks+.cue
Битрейт аудио: lossless
Продолжительность: 01:09:08
Источник (релизер): jlgt
Наличие сканов в содержимом раздачи: да
Треклист:
01.La del Pulpo [14:01]
02.Intro Cafe Latino [02:41]
03.Amor Ascensor [09:37]
04.El Efecto Centolla [09:20]
05.Luces de la Fragua [09:04]
06.Cebreiro [02:09]
07.Beat Street [16:09]
08.Toda Una Vida [06:03]
Personnel:
Jorge Pardo - sax
Josemi Carmona - guitars
Abe Rábade - piano
Javier Colina - double bass
Jeff Ballard - drums
Chonchi Heredia - vocals
 
Лог создания рипа
Exact Audio Copy V1.0 beta 2 from 29. April 2011
EAC extraction logfile from 6. July 2012, 1:04
Jorge Pardo, Josemi Carmona, Javier Colina, Jeff Ballard, Abe Rabade, Chonchi Heredia / Cafe Latino 25 Aniversario
Used drive : PLEXTOR DVDR PX-L890SA Adapter: 2 ID: 1
Read mode : Secure
Utilize accurate stream : Yes
Defeat audio cache : Yes
Make use of C2 pointers : No
Read offset correction : 6
Overread into Lead-In and Lead-Out : No
Fill up missing offset samples with silence : Yes
Delete leading and trailing silent blocks : No
Null samples used in CRC calculations : Yes
Used interface : Native Win32 interface for Win NT & 2000
Gap handling : Appended to previous track
Used output format : User Defined Encoder
Selected bitrate : 256 kBit/s
Quality : High
Add ID3 tag : No
Command line compressor : C:\Program Files (x86)\Exact Audio Copy\FLAC\FLAC.EXE
Additional command line options : -8 -V -T "ARTIST=%artist%" -T "TITLE=%title%" -T "ALBUM=%albumtitle%" -T "DATE=%year%" -T "TRACKNUMBER=%tracknr%" -T "TOTALTRACKS=%numtracks%" -T "GENRE=%genre%" -T "ALBUMARTIST=%albumartist%" -T "ALBUM ARTIST=%albumartist%
TOC of the extracted CD
Track | Start | Length | Start sector | End sector
---------------------------------------------------------
1 | 0:00.00 | 14:01.65 | 0 | 63139
2 | 14:01.65 | 2:41.72 | 63140 | 75286
3 | 16:43.62 | 9:37.09 | 75287 | 118570
4 | 26:20.71 | 9:20.57 | 118571 | 160627
5 | 35:41.53 | 9:04.12 | 160628 | 201439
6 | 44:45.65 | 2:09.41 | 201440 | 211155
7 | 46:55.31 | 16:09.59 | 211156 | 283889
8 | 63:05.15 | 6:03.02 | 283890 | 311116
9 | 71:40.17 | 7:26.33 | 322517 | 355999
Track 1
Filename F:\Flac Rips\01 - La del Pulpo.wav
Pre-gap length 0:00:02.00
Peak level 97.3 %
Extraction speed 4.7 X
Track quality 100.0 %
Test CRC 9F4B5E50
Copy CRC 9F4B5E50
Track not present in AccurateRip database
Copy OK
Track 2
Filename F:\Flac Rips\02 - Intro Cafe Latino.wav
Peak level 91.9 %
Extraction speed 4.6 X
Track quality 100.0 %
Test CRC A1EA8D06
Copy CRC A1EA8D06
Track not present in AccurateRip database
Copy OK
Track 3
Filename F:\Flac Rips\03 - Amor Ascensor.wav
Peak level 99.2 %
Extraction speed 5.9 X
Track quality 100.0 %
Test CRC B85C740B
Copy CRC B85C740B
Track not present in AccurateRip database
Copy OK
Track 4
Filename F:\Flac Rips\04 - El Efecto Centolla.wav
Peak level 96.0 %
Extraction speed 5.8 X
Track quality 99.9 %
Test CRC 8542C399
Copy CRC 8542C399
Track not present in AccurateRip database
Copy OK
Track 5
Filename F:\Flac Rips\05 - Luces de la Fragua.wav
Peak level 95.1 %
Extraction speed 6.3 X
Track quality 99.9 %
Test CRC 1D06865C
Copy CRC 1D06865C
Track not present in AccurateRip database
Copy OK
Track 6
Filename F:\Flac Rips\06 - Cebreiro.wav
Peak level 94.5 %
Extraction speed 5.8 X
Track quality 100.0 %
Test CRC A298C633
Copy CRC A298C633
Track not present in AccurateRip database
Copy OK
Track 7
Filename F:\Flac Rips\07 - Beat Street.wav
Peak level 96.3 %
Extraction speed 7.4 X
Track quality 99.9 %
Test CRC 37F704AC
Copy CRC 37F704AC
Track not present in AccurateRip database
Copy OK
Track 8
Filename F:\Flac Rips\08 - Toda Una Vida.wav
Peak level 95.5 %
Extraction speed 7.9 X
Track quality 100.0 %
Test CRC 0F7B2B14
Copy CRC 0F7B2B14
Track not present in AccurateRip database
Copy OK
None of the tracks are present in the AccurateRip database
No errors occurred
End of status report
==== Log checksum 7115DDC9843FC04DA2011524F30739E3A6650001A294D4B088237EE6C690D001 ====
 
Содержание индексной карты (.CUE)
REM GENRE Jazz
REM DATE 2012
REM DISCID 7C128A09
REM COMMENT "ExactAudioCopy v1.0b2"
PERFORMER "Jorge Pardo, Josemi Carmona, Javier Colina, Jeff Ballard, Abe Rabade, Chonchi..."
TITLE "Cafe Latino 25 Aniversario"
FILE "01 - La del Pulpo.wav" WAVE
TRACK 01 AUDIO
TITLE "La del Pulpo"
PERFORMER "Jorge Pardo, Josemi Carmona, Javier Colina, Jeff Ballard, Abe Rabade, Chonchi..."
INDEX 01 00:00:00
FILE "02 - Intro Cafe Latino.wav" WAVE
TRACK 02 AUDIO
TITLE "Intro Cafe Latino"
PERFORMER "Jorge Pardo, Josemi Carmona, Javier Colina, Jeff Ballard, Abe Rabade, Chonchi..."
INDEX 01 00:00:00
FILE "03 - Amor Ascensor.wav" WAVE
TRACK 03 AUDIO
TITLE "Amor Ascensor"
PERFORMER "Jorge Pardo, Josemi Carmona, Javier Colina, Jeff Ballard, Abe Rabade, Chonchi..."
INDEX 01 00:00:00
FILE "04 - El Efecto Centolla.wav" WAVE
TRACK 04 AUDIO
TITLE "El Efecto Centolla"
PERFORMER "Jorge Pardo, Josemi Carmona, Javier Colina, Jeff Ballard, Abe Rabade, Chonchi..."
INDEX 01 00:00:00
FILE "05 - Luces de la Fragua.wav" WAVE
TRACK 05 AUDIO
TITLE "Luces de la Fragua"
PERFORMER "Jorge Pardo, Josemi Carmona, Javier Colina, Jeff Ballard, Abe Rabade, Chonchi..."
INDEX 01 00:00:00
FILE "06 - Cebreiro.wav" WAVE
TRACK 06 AUDIO
TITLE "Cebreiro"
PERFORMER "Jorge Pardo, Josemi Carmona, Javier Colina, Jeff Ballard, Abe Rabade, Chonchi..."
INDEX 01 00:00:00
FILE "07 - Beat Street.wav" WAVE
TRACK 07 AUDIO
TITLE "Beat Street"
PERFORMER "Jorge Pardo, Josemi Carmona, Javier Colina, Jeff Ballard, Abe Rabade, Chonchi..."
INDEX 01 00:00:00
FILE "08 - Toda Una Vida.wav" WAVE
TRACK 08 AUDIO
TITLE "Toda Una Vida"
PERFORMER "Jorge Pardo, Josemi Carmona, Javier Colina, Jeff Ballard, Abe Rabade, Chonchi..."
INDEX 01 00:00:00
04:26
323
Нет комментариев. Ваш будет первым!